[ Сегодня идет свободное скачивание без начисления Download ]


Статистика раздачи
Нет
 
   
 
Top  
 
 
Физрук [S03] (2016) Информация о фильме
Название: Физрук
Год выхода: 2016
Жанр: Комедия
Режиссер: Фёдор Стуков, Сергей Сенцов
В ролях: Дмитрий Нагиев, Александр Гордон, Полина Гренц, Анастасия Панина, Владимир Сычев, Даниил Вахрушев, Андрей Крыжний, Артур Сопельник, Оксана Сидоренко, Карина Мишулина
О фильме:«Физрук 3 сезон» начинается с того, что с Фомы сняты все обвинения. Оказавшись на свободе, он видит, что жизнь его друзей изменилась: у Психа кризис среднего возраста, Таня строит новые отношения, а Мамаева, лишившись бизнеса отца, сводит концы с концами. Но физрук умеет решать проблемы. Фоме предстоит вернуть «отжатый» бизнес Саше как законной наследнице, завоевать Татьяну, и решить вопрос с гангстабоссом Леной, на стороне которой деньги, связи и армия головорезов. Зато в арсенале Фомы надежная команда, новая невероятная схема, в которой замешаны школа, Татьяна Александровна, друг детства и духовный наставник Миша по кличке «Буддист» и даже президент России. Все вместе они отправятся на поиски истины, счастья и справедливости. У них на всех всего одно заветное желание, и компаньоны уверены, что оно обязательно сбудется.
Выпущено: Россия, ТНТ
Продолжительность: 21 х ~ 00:25:00
Перевод: Не требуется
Файл:
Качество: DVB
Видео: MPEG-4 AVC, ~ 1900 Кбит/с, 720x576@768х576
Аудио: MP2, 2 ch, 192 Кбит/с
Семпл

MI

Общее
Идентификатор : 1 (0x1)
Полное имя : F:RipaiFizruk-3.;DVB.Files-x16.Fizruk-3.;DVB.Files-x.ts
Формат : MPEG-TS
Размер файла : 447 Мбайт
Продолжительность : 24 м.
Режим общего битрейта : Переменный
Общий поток : 2534 Кбит/сек
Видео
Идентификатор : 1701 (0x6A5)
Идентификатор меню : 1700 (0x6A4)
Формат : AVC
Формат/Информация : Advanced Video Codec
Профиль формата : High@L3
Параметр CABAC формата : Да
Параметр ReFrames формата : 3 кадра
Идентификатор кодека : 27
Продолжительность : 24 м.
Битрейт : 2020 Кбит/сек
Ширина : 720 пикселей
Высота : 576 пикселей
Соотношение сторон : 4:3
Частота кадров : 25,000 кадров/сек
Стандарт вещания : Component
Цветовое пространство : YUV
Субдискретизация насыщенности : 4:2:0
Битовая глубина : 8 бит
Тип развёртки : Чересстрочная
Метод сохранения типа развёртки : Раздельные поля
Порядок развёртки : Верхнее поле первое
Бит/(Пиксели*Кадры) : 0.195
Размер потока : 356 Мбайт (80%)
Цветовой диапазон : Limited
Основные цвета : BT.601 PAL
Характеристики трансфера : BT.470 System B, BT.470 System G
Коэффициенты матрицы : BT.601
Аудио #1
Идентификатор : 1702 (0x6A6)
Идентификатор меню : 1700 (0x6A4)
Формат : MPEG Audio
Версия формата : Version 1
Профиль формата : Layer 2
Идентификатор кодека : 3
Продолжительность : 24 м.
Вид битрейта : Постоянный
Битрейт : 192 Кбит/сек
Каналы : 2 канала
Частота : 48,0 КГц
Метод сжатия : С потерями
Задержка видео : -120 мс.
Размер потока : 33,8 Мбайт (8%)
Язык : English
Аудио #2
Идентификатор : 1703 (0x6A7)
Идентификатор меню : 1700 (0x6A4)
Формат : MPEG Audio
Версия формата : Version 1
Профиль формата : Layer 2
Идентификатор кодека : 3
Продолжительность : 24 м.
Вид битрейта : Постоянный
Битрейт : 192 Кбит/сек
Каналы : 2 канала
Частота : 48,0 КГц
Метод сжатия : С потерями
Задержка видео : -120 мс.
Размер потока : 33,8 Мбайт (8%)
Язык : English

Скриншоты

[Цитировать]



Показать сообщения:    

Текущее время: 26-Июл 08:41

Часовой пояс: UTC + 6


Вы не можете начинать темы
Вы не можете отвечать на сообщения
Вы не можете редактировать свои сообщения
Вы не можете удалять свои сообщения
Вы не можете голосовать в опросах
Вы не можете прикреплять файлы к сообщениям
Вы не можете скачивать файлы

!ВНИМАНИЕ!
Сайт не предоставляет электронные версии произведений, а занимается лишь коллекционированием и каталогизацией ссылок, присылаемых и публикуемых на форуме нашими читателями. Если вы являетесь правообладателем какого-либо представленного материала и не желаете, чтобы ссылка на него находилась в нашем каталоге, свяжитесь с нами, и мы незамедлительно удалим ее. Файлы для обмена на трекере предоставлены пользователями сайта, и администрация не несет ответственности за их содержание. Просьба не заливать файлы, защищенные авторскими правами, а также файлы нелегального содержания!