[ Сегодня идет свободное скачивание без начисления Download ]


Статистика раздачи
Нет
 
   
 
Top  
 
 
-Ключ от преисподней / Baskin (2015) WEB-DL [H.264/720-LQ] [Line] - Производство: США, Турция
Жанр: Ужасы, фэнтези
Режиссер: Цан Евренол
Актеры: Горкем Касал, Эргун Куюсу, Мухаррем Байрак, Фатих Докгёз, Сабахаттин Якут, Мехмет Церрахоглу, Хаяти Китаклар, Леман Севда Дарициоглу, Тугба Озкуль, Аслихан Ергуван
Описание: Пятеро брутальных копов сидели в ночной забегаловке. Обычный мужской треп — футбол, девушки, секс — прервал экстренный вызов. Группе приказали проверить заброшенный дом в лесу. Сели в патрульную машину и поехали. Привычное дело. Ежедневная рутина. Но не в этот раз. Полуразрушенный и пустой, на первый взгляд, дом оказался преддверием Ада, кишащим жуткими монстрами. И каждому из полицейских здесь уготованы чудовищные пытки, каждому — по грехам его…

Дата мировой премьеры: 11 сентября 2015
Дата премьеры в России: 14 апреля 2016

Продолжительность: 01:36:46
Качество видео: WEB-DL (Line) Сэмпл
Перевод: Дублированный
Субтитры: Английские (вшитые, отлючаемые)
Видео: AVC, 1280x532 (2.40:1), 24.000 fps, 4 010 Kbps (0.245 bit/pixel)
Аудио : MP3, 48.0 KHz, 2 ch, 320 Kbps, CBR (Russian)
Аудио : AC-3, 48.0 KHz, 6 ch, 384 Kbps, CBR (Turkish)

Mediainfo:

Формат                                   : Matroska
Версия формата                           : Version 4 / Version 2
Размер файла                             : 3,13 Гбайт
Продолжительность                        : 1 ч. 36 м.
Общий поток                              : 4635 Кбит/сек
Название фильма                          : rustorrents.info
Дата кодирования                         : UTC 2016-05-15 05:30:00
Программа кодирования                    : mkvmerge v6.1.0 ('Old Devil') built on Mar  4 2013 09:10:42
Библиотека кодирования                   : libebml v1.3.0 + libmatroska v1.4.0
Видео
Идентификатор                            : 1
Формат                                   : AVC
Формат/Информация                        : Advanced Video Codec
Профиль формата                          : [url=mailto:High@L3.1]High@L3.1[/url]
Параметр CABAC формата                   : Нет
Параметр ReFrames формата                : 2 кадра
Идентификатор кодека                     : V_MPEG4/ISO/AVC
Продолжительность                        : 1 ч. 36 м.
Вид битрейта                             : Постоянный
Битрейт                                  : 4010 Кбит/сек
Ширина                                   : 1280 пикселей
Высота                                   : 532 пикселя
Соотношение сторон                       : 2,40:1
Режим частоты кадров                     : Постоянный
Частота кадров                           : 24,000 кадра/сек
Цветовое пространство                    : YUV
Субдискретизация насыщенности            : 4:2:0
Битовая глубина                          : 8 бит
Тип развёртки                            : Прогрессивная
Бит/(Пиксели*Кадры)                      : 0.245
Размер потока                            : 2,60 Гбайт (83%)
Default                                  : Да
Forced                                   : Нет
Цветовой диапазон                        : Limited
Основные цвета                           : BT.709
Характеристики трансфера                 : BT.709
Коэффициенты матрицы                     : BT.709
Аудио #1
Идентификатор                            : 2
Формат                                   : MPEG Audio
Версия формата                           : Version 1
Профиль формата                          : Layer 3
Режим                                    : Joint stereo
Идентификатор кодека                     : A_MPEG/L3
Идентификатор кодека/Подсказка           : MP3
Продолжительность                        : 1 ч. 36 м.
Вид битрейта                             : Постоянный
Битрейт                                  : 320 Кбит/сек
Каналы                                   : 2 канала
Частота                                  : 48,0 КГц
Метод сжатия                             : С потерями
Размер потока                            : 222 Мбайт (7%)
Заголовок                                : rustorrents.info
Язык                                     : Russian
Default                                  : Да
Forced                                   : Да
Аудио #2
Идентификатор                            : 3
Формат                                   : AC-3
Формат/Информация                        : Audio Coding 3
Расширение режима                        : CM (complete main)
Параметр Endianness формата              : Big
Идентификатор кодека                     : A_AC3
Продолжительность                        : 1 ч. 36 м.
Вид битрейта                             : Постоянный
Битрейт                                  : 384 Кбит/сек
Каналы                                   : 6 каналов
Расположение каналов                     : Front: L C R, Side: L R, LFE
Частота                                  : 48,0 КГц
Битовая глубина                          : 16 бит
Метод сжатия                             : С потерями
Размер потока                            : 266 Мбайт (8%)
Язык                                     : Turkish
Default                                  : Нет
Forced                                   : Нет
Текст
Идентификатор                            : 4
Формат                                   : UTF-8
Идентификатор кодека                     : S_TEXT/UTF8
Идентификатор кодека/Информация          : UTF-8 Plain Text
Язык                                     : English
Default                                  : Да
Forced                                   : Нет
Меню
00:00:00.000                             : en:1
00:13:02.000                             : en:2
00:23:52.000                             : en:3
00:35:24.000                             : en:4
00:45:15.000                             : en:5
00:54:32.000                             : en:6
01:03:58.000                             : en:7
01:12:56.000                             : en:8
01:20:49.000                             : en:9
01:31:33.000                             : en:10
Скриншоты:

[Цитировать]

это интересно--вот бы так в натуре

[Цитировать]



Показать сообщения:    

Текущее время: 24-Июл 22:50

Часовой пояс: UTC + 6


Вы не можете начинать темы
Вы не можете отвечать на сообщения
Вы не можете редактировать свои сообщения
Вы не можете удалять свои сообщения
Вы не можете голосовать в опросах
Вы не можете прикреплять файлы к сообщениям
Вы не можете скачивать файлы

!ВНИМАНИЕ!
Сайт не предоставляет электронные версии произведений, а занимается лишь коллекционированием и каталогизацией ссылок, присылаемых и публикуемых на форуме нашими читателями. Если вы являетесь правообладателем какого-либо представленного материала и не желаете, чтобы ссылка на него находилась в нашем каталоге, свяжитесь с нами, и мы незамедлительно удалим ее. Файлы для обмена на трекере предоставлены пользователями сайта, и администрация не несет ответственности за их содержание. Просьба не заливать файлы, защищенные авторскими правами, а также файлы нелегального содержания!