[ Сегодня идет свободное скачивание без начисления Download ]


Статистика раздачи
Нет
 
   
 
Top  
 
 
СуперКрылья. Джетт и его друзья / Super Wings. Jett and his friends Информация о фильме
Название: СуперКрылья. Джетт и его друзья
Оригинальное название: Super Wings. Jett and his friends
Год выхода: 2015
Страна: USA, South Korea, China
Студия: FunnyFlux Entertainment, Little Airplane Productions
Жанр: Мультсериал, познавательный, детский, приключения
Продолжительность: 32 х ~ 00:11:59
Перевод: Профессиональный дублированный
Режиссер: Гул Хоон Юнг
Роли озвучивали: Luca Padovan, Logan J Rush, Colin Critchley, Joseph Ricci, Jacob Schmitt, ...
О фильме:
Путешествуйте и изучайте страны мира вместе с персонажами мультсериала! Главный герой мультсериала — симпатичный самолетик Джетт. Он путешествует по миру, доставляя посылки детям. Иногда во время выполнения заданий Джетт сталкивается с трудностями, и на помощь ему приходят верные друзья, — команда бесстрашных трансформеров-самолётиков. В каждом эпизоде мультсериала герои отправляются в новую точку земного шара. Цель проекта — рассказать детям о культуре, традициях и языках различных стран и народов мира. Всего самолётики, а вместе с ними и маленькие телезрители, посетят 52 города в 45 государствах.
Файл
Формат: MP4
Качество: WEBRip 720p
Видео: MPEG4-AVC, High@L3.1, 1280x720 (16:9), ~ 1 200 Kbps, 25.000 fps
Звук: 44.1 KHz, AAC-LC 2.0, 192 Kbps
Субтитры: нет

Содержание

01. Правильный воздушный змей
02. Игра теней
03. Гонка на гондолах
04. Гавайское приключение
05. Щенки для принцессы
06. По сахаре на санках
07. Свет, камера, мотор!
08. Проблемы с пузырями
09. Гонка со временем
10. Звёзды Монголии
11. Невероятная самба
12. Мальчик из пирамиды
13. Боязнь сцены
14. Музыкальная горилла
15. Цирковое представление
16. Бумажные рейнджеры
17. Вояж к викингам
18. Арктический побег
19. Рецепт победы
20. Погоня за призраком
21. Звезда эстрады
22. Пернатые друзья
23. Друзья по рисованию
24. Фиеста! Фиеста!
25. День чистоты
26. Семейный час
27. Скоростной путь
28. Сырная гонка
29. Сбежавший Рекс
30. Отряд «Зебра»
31. Беседы с животными
32. Парад пингвинов
33. Невероятный Мориц
34. Поездка в космос
35. Папа-пожарный
-

MI

04. Гавайское приключение. HD-merci-.mp4
Format : MPEG-4
Format profile : Base Media
Codec ID : isom (isom/mp42)
File size : 125 MiB
Duration : 11mn 59s
Overall bit rate mode : Variable
Overall bit rate : 1 458 Kbps
Encoded date : UTC 2016-05-04 07:21:02
Tagged date : UTC 2016-05-04 07:21:02
Writing application : My MP4Box GUI 0.6.0.6
Video
ID : 1
Format : AVC
Format/Info : Advanced Video Codec
Format profile : Main@L3.1
Format settings, CABAC : Yes
Format settings, ReFrames : 3 frames
Codec ID : avc1
Codec ID/Info : Advanced Video Coding
Duration : 11mn 59s
Source duration : 11mn 59s
Bit rate : 1 200 Kbps
Width : 1 280 pixels
Height : 720 pixels
Display aspect ratio : 16:9
Frame rate mode : Constant
Frame rate : 25.000 fps
Color space : YUV
Chroma subsampling : 4:2:0
Bit depth : 8 bits
Scan type : Progressive
Bits/(Pixel*Frame) : 0.052
Stream size : 103 MiB (82%)
Source stream size : 108 MiB (87%)
Language : English
Encoded date : UTC 2016-05-04 07:21:02
Tagged date : UTC 2016-05-04 07:21:02
Color range : Limited
Color primaries : BT.709
Transfer characteristics : BT.709
Matrix coefficients : BT.709
mdhd_Duration : 719181
Audio
ID : 2
Format : AAC
Format/Info : Advanced Audio Codec
Format profile : LC
Codec ID : 40
Duration : 11mn 59s
Bit rate mode : Variable
Bit rate : 192 Kbps
Channel(s) : 2 channels
Channel positions : Front: L R
Sampling rate : 44.1 KHz
Frame rate : 43.066 fps (1024 spf)
Compression mode : Lossy
Stream size : 16.2 MiB (13%)
Language : English
Encoded date : UTC 2016-05-04 07:21:02
Tagged date : UTC 2016-05-04 07:21:02
mdhd_Duration : 719261

Скриншоты

[Цитировать]



Показать сообщения:    

Текущее время: 21-Авг 08:50

Часовой пояс: UTC + 6


Вы не можете начинать темы
Вы не можете отвечать на сообщения
Вы не можете редактировать свои сообщения
Вы не можете удалять свои сообщения
Вы не можете голосовать в опросах
Вы не можете прикреплять файлы к сообщениям
Вы не можете скачивать файлы

!ВНИМАНИЕ!
Сайт не предоставляет электронные версии произведений, а занимается лишь коллекционированием и каталогизацией ссылок, присылаемых и публикуемых на форуме нашими читателями. Если вы являетесь правообладателем какого-либо представленного материала и не желаете, чтобы ссылка на него находилась в нашем каталоге, свяжитесь с нами, и мы незамедлительно удалим ее. Файлы для обмена на трекере предоставлены пользователями сайта, и администрация не несет ответственности за их содержание. Просьба не заливать файлы, защищенные авторскими правами, а также файлы нелегального содержания!