[ Сегодня идет свободное скачивание без начисления Download ]


Статистика раздачи
Нет
 
   
 
Top  
 
 
Нет мужчин - нет проблем / Without Men (2011) HDTV 1080i Информация о фильме
Название: Нет мужчин - нет проблем
Оригинальное название: Without Men
Год выхода: 2011
Жанр: Комедия
Режиссер: Габриела Тальявини
В ролях: Ева Лонгория, Кристиан Слэйтер, Оскар Нунез, Кейт дель Кастильо, Моника Уарте, Ивет Йэтс, Мария Кончита Алонсо, Луис Чавес, Гильермо Диас, Пол Родригес, Камрин Менхейм, Джуди Рейес, Фернанда Ромеро, Джесси Гарсиа, Эрин Кэй, Рейнальдо Пачеко
О фильме:
Американский военный корреспондент Гордон рыщет по Латинской Америке в поисках сенсаций. И удача улыбается ему! Журналист узнает, что в одном богом забытом городке всех мужчин в одночасье забрали в партизанскую армию. Теперь их женам, сестрам и дочерям под предводительством очаровательной Розальбы приходится строить новый мир — мир без мужчин. И Гордон отправляется к месту событий…

Страна: США
Студия: Indalo Productions, Venus Films, Vini Films
Продолжительность: 01:20:42
Перевод: Профессиональный многоголосый
Файл
Кодек: h.264
Качество: HDTV 1080i
Видео: MPEG-4 AVC, ~ 6878 Кбит/с, 1920x1080, 25.000 кадр/с
Звук:
Русский (AC3, 6 ch, 384 Кбит/с) / Профессиональный многоголосый (Amedia)
Английский (MP2, 2 ch, 192 Кбит/с)
Русский (MP2, 2 ch, 192 Кбит/с) / Профессиональный многоголосый (Amedia)
Семпл

О релизе

Автор релиза - Silverok, первоисточник - Amedia Hit HD

MI

Общее
Идентификатор : 1 (0x1)
Полное имя : D:uTorrentNet.muzcin-net.problem.2011.HDTV.1080i.MediaClub.ts
Формат : MPEG-TS
Размер файла : 4,54 Гбайт
Продолжительность : 1 ч. 20 м.
Режим общего битрейта : Переменный
Общий поток : 8051 Кбит/сек
Видео
Идентификатор : 49 (0x31)
Идентификатор меню : 1 (0x1)
Формат : AVC
Формат/Информация : Advanced Video Codec
Профиль формата : High@L4
Параметр CABAC формата : Да
Параметр ReFrames формата : 4 кадра
Идентификатор кодека : 27
Продолжительность : 1 ч. 20 м.
Битрейт : 6878 Кбит/сек
Ширина : 1920 пикселей
Высота : 1080 пикселей
Соотношение сторон : 16:9
Частота кадров : 25,000 кадров/сек
Стандарт вещания : Component
Цветовое пространство : YUV
Субдискретизация насыщенности : 4:2:0
Битовая глубина : 8 бит
Тип развёртки : MBAFF
Метод сохранения типа развёртки : Чередующиеся поля
Порядок развёртки : Верхнее поле первое
Бит/(Пиксели*Кадры) : 0.133
Размер потока : 3,88 Гбайт (85%)
Цветовой диапазон : Limited
Основные цвета : BT.709
Характеристики трансфера : BT.709
Коэффициенты матрицы : BT.709
Аудио #1
Идентификатор : 51 (0x33)
Идентификатор меню : 1 (0x1)
Формат : AC-3
Формат/Информация : Audio Coding 3
Расширение режима : CM (complete main)
Параметр Endianness формата : Big
Идентификатор кодека : 129
Продолжительность : 1 ч. 20 м.
Вид битрейта : Постоянный
Битрейт : 384 Кбит/сек
Каналы : 6 каналов
Расположение каналов : Front: L C R, Side: L R, LFE
Частота : 48,0 КГц
Частота кадров : 31,250 кадров/сек (1536 spf)
Метод сжатия : С потерями
Размер потока : 222 Мбайт (5%)
Язык : Russian
Аудио #2
Идентификатор : 52 (0x34)
Идентификатор меню : 1 (0x1)
Формат : MPEG Audio
Версия формата : Version 1
Профиль формата : Layer 2
Режим : Joint stereo
Расширение режима : Intensity Stereo + MS Stereo
Идентификатор кодека : 3
Продолжительность : 1 ч. 20 м.
Вид битрейта : Постоянный
Битрейт : 192 Кбит/сек
Каналы : 2 канала
Частота : 48,0 КГц
Метод сжатия : С потерями
Размер потока : 111 Мбайт (2%)
Язык : English
Аудио #3
Идентификатор : 53 (0x35)
Идентификатор меню : 1 (0x1)
Формат : MPEG Audio
Версия формата : Version 1
Профиль формата : Layer 2
Режим : Joint stereo
Расширение режима : Intensity Stereo + MS Stereo
Идентификатор кодека : 3
Продолжительность : 1 ч. 20 м.
Вид битрейта : Постоянный
Битрейт : 192 Кбит/сек
Каналы : 2 канала
Частота : 48,0 КГц
Метод сжатия : С потерями
Размер потока : 111 Мбайт (2%)
Язык : Russian

Скриншоты

[Цитировать]



Показать сообщения:    

Текущее время: 17-Авг 01:33

Часовой пояс: UTC + 6


Вы не можете начинать темы
Вы не можете отвечать на сообщения
Вы не можете редактировать свои сообщения
Вы не можете удалять свои сообщения
Вы не можете голосовать в опросах
Вы не можете прикреплять файлы к сообщениям
Вы не можете скачивать файлы

!ВНИМАНИЕ!
Сайт не предоставляет электронные версии произведений, а занимается лишь коллекционированием и каталогизацией ссылок, присылаемых и публикуемых на форуме нашими читателями. Если вы являетесь правообладателем какого-либо представленного материала и не желаете, чтобы ссылка на него находилась в нашем каталоге, свяжитесь с нами, и мы незамедлительно удалим ее. Файлы для обмена на трекере предоставлены пользователями сайта, и администрация не несет ответственности за их содержание. Просьба не заливать файлы, защищенные авторскими правами, а также файлы нелегального содержания!