[ Сегодня идет свободное скачивание без начисления Download ]


Статистика раздачи
Скачал: [ 1 ]
 
   
 
Top  
 
 
wpa.at.ua | Проверь свою WI-FI сеть на устойчивость к взлому (2012) PCRec - Автор (режиссер): wpa.at.ua
Жанр: Компьютерная безопасность
Описание:
Прослушав этот цикл вебинаров, Вы узнаете:
- Что такое wi-fi, в чем его удобство (и неудобство)?
- На сколько опасен (или безопасен) wi-fi?
- На сколько просто он может быть взломан?
- Как сделать wi-fi безопасным?
- Как проверить реальную устойчивость Вашей wi-fi сети к взлому?
- Какие существуют инструменты для проверки взломоустойчивости wi-fi и как пользоваться этими инструментами?
- А так же, как можно ЧЕСТНО заработать на уязвимостях wi-fi сетей? (только честные и благородные методы заработка).
Как взломать wi-fi не нарушая законы и морально-этические нормы? При этом Вам еще и заплатят!
Продолжительность: 02:31:07
Качество видео: PCRec
Видео: TechSmith, 800х600, ~168 Kbps
Аудио: MP3, 2 ch, 320 Kbps, CBR

Mediainfo:

General
Complete name : 02. Уязвимости Wi-Fi сетей.avi
Format : AVI
Format/Info : Audio Video Interleave
File size : 74.1 MiB
Duration : 21mn 2s
Overall bit rate : 493 Kbps
Video
ID : 0
Format : TechSmith
Codec ID : tscc
Codec ID/Info : TechSmith Screen Capture
Duration : 21mn 2s
Bit rate : 168 Kbps
Width : 800 pixels
Height : 600 pixels
Display aspect ratio : 4:3
Frame rate : 15.000 fps
Bit depth : 8 bits
Bits/(Pixel*Frame) : 0.023
Stream size : 25.3 MiB (34%)
Audio
ID : 1
Format : MPEG Audio
Format version : Version 1
Format profile : Layer 3
Codec ID : 55
Codec ID/Hint : MP3
Duration : 21mn 2s
Bit rate mode : Constant
Bit rate : 320 Kbps
Channel(s) : 2 channels
Sampling rate : 44.1 KHz
Compression mode : Lossy
Stream size : 48.1 MiB (65%)
Alignment : Split accross interleaves
Interleave, duration : 999 ms (14.99 video frames)
Interleave, preload duration : 750 ms
Writing library : LAME3.97 (beta)
Скриншоты:

Дополнительные скриншоты:

[Цитировать]



Показать сообщения:    

Текущее время: 19-Авг 17:01

Часовой пояс: UTC + 6


Вы не можете начинать темы
Вы не можете отвечать на сообщения
Вы не можете редактировать свои сообщения
Вы не можете удалять свои сообщения
Вы не можете голосовать в опросах
Вы не можете прикреплять файлы к сообщениям
Вы не можете скачивать файлы

!ВНИМАНИЕ!
Сайт не предоставляет электронные версии произведений, а занимается лишь коллекционированием и каталогизацией ссылок, присылаемых и публикуемых на форуме нашими читателями. Если вы являетесь правообладателем какого-либо представленного материала и не желаете, чтобы ссылка на него находилась в нашем каталоге, свяжитесь с нами, и мы незамедлительно удалим ее. Файлы для обмена на трекере предоставлены пользователями сайта, и администрация не несет ответственности за их содержание. Просьба не заливать файлы, защищенные авторскими правами, а также файлы нелегального содержания!