[ Сегодня идет свободное скачивание без начисления Download ]


Статистика раздачи
Нет
 
   
 
 
 
 
-Нацисты в центре Земли / Nazis at the Center of the Earth (2012) BDRemux- -Русское название: Нацисты в центре Земли
Оригинальное название: Nazis at the Center of the Earth
Страна: США
Студия: Global Asylum, The
Год выпуска: 2012
Жанр: Ужасы, Боевик, Приключения-Описание фильма:
Учёные, прибывшие в Антарктиду, оказываются похищенными группой людей в масках, которые увлекают их под Землю. Герои оказываются на подземном континенте, являющимся оплотом нацистов, которым, казалось бы, пришёл конец во время второй мировой войны. Их тела состоят из разрушенной и восстанавливающейся плоти и в их планах возрождение Третьего рейха…-Режиссер: Джозеф Дж. Лосон / Joseph J. Lawson
Актеры: Доминик Суэйн, Джейк Бьюзи, Джош Аллен, Кристофер Карл Джонсон, Джеймс Максвелл Янг, Лилан Боуден, Марлен Окнер, Адам Берч, Мария Паллас, Абдеррахим Халаймиа,-Продолжительность: 01:29:38
Перевод: Профессиональный |многоголосый закадровый| R5 + Одноголосый закадровый |magnumst|
Cубтитры: русские (R5)
Оригинальная аудиодорожка: английский
Формат субтитров: softsub |SRT|- -
Рейтинг R - Детям до 17 лет обязательно присутствие родителей-Видеокодек: MPEG-2
Битрейт видео: ~15001 Кbps
Размер кадра: 1920x1080p
Качество видео: BDRemux-Аудио 1: Русский AC3; 192 Kbps; CBR; 2 ch; 48 khz | MVO
Аудио 2: Русский AC3; 192 Kbps; CBR; 2 ch; 48 khz | VO
Аудио 3: Английский DTS HD MA; 2006 Kbps; VBR; 6 ch; 48 khz; 16 bit | DTS Core: 5.1 / 48 kHz / 1509 kbps / 16-bit)-Скриншоты:

MediaInfo:

General
Complete name : O:\Нацисты в центре Земли.2012.mkv
Format : Matroska
File size : 10.9 GiB
Duration : 1h 29mn
Overall bit rate : 17.4 Mbps
Encoded date : UTC 2013-01-31 15:03:19
Writing application : mkvmerge v6.0.0 ('Coming Up For Air') built on Jan 20 2013 09:52:00
Writing library : libebml v1.3.0 + libmatroska v1.4.0
Video
ID : 1
Format : MPEG Video
Format version : Version 2
Format profile : Main@High
Format settings, BVOP : No
Format settings, Matrix : Default
Codec ID : V_MPEG2
Codec ID/Info : MPEG 1 or 2 Video
Duration : 1h 29mn
Bit rate mode : Variable
Nominal bit rate : 25.0 Mbps
Width : 1 920 pixels
Height : 1 080 pixels
Display aspect ratio : 16:9
Frame rate : 23.976 fps
Standard : Component
Resolution : 8 bits
Colorimetry : 4:2:0
Scan type : Progressive
Bits/(Pixel*Frame) : 0.503
Title : MPEG2 / ~15,001 kbps / 1080p / 23.976 fps / 16:9 / Main@High
Audio #1
ID : 2
Format : AC-3
Format/Info : Audio Coding 3
Codec ID : A_AC3
Duration : 1h 29mn
Bit rate mode : Constant
Bit rate : 192 Kbps
Channel(s) : 2 channels
Channel positions : L R
Sampling rate : 48.0 KHz
Stream size : 123 MiB (1%)
Title : P, MVO [R5]
Language : Russian
Audio #2
ID : 3
Format : AC-3
Format/Info : Audio Coding 3
Codec ID : A_AC3
Duration : 1h 29mn
Bit rate mode : Constant
Bit rate : 192 Kbps
Channel(s) : 2 channels
Channel positions : L R
Sampling rate : 48.0 KHz
Stream size : 123 MiB (1%)
Title : VO [magnumst]
Language : Russian
Audio #3
ID : 4
Format : DTS
Format/Info : Digital Theater Systems
Format profile : MA
Codec ID : A_DTS
Duration : 1h 29mn
Bit rate mode : Variable
Channel(s) : 6 channels
Channel positions : Front: L C R, Surround: L R, LFE
Sampling rate : 48.0 KHz
Resolution : 16 bits
Title : 5.1 / 48 kHz / 2006 kbps / 16-bit (DTS Core: 5.1 / 48 kHz / 1509 kbps / 16-bit)
Text
ID : 5
Format : UTF-8
Codec ID : S_TEXT/UTF8
Codec ID/Info : UTF-8 Plain Text
Title : R5
Language : Russian
Menu
00:00:00.000 : en:00:00:00.000
00:04:25.265 : en:00:04:25.265
00:09:58.598 : en:00:09:58.598
00:14:32.372 : en:00:14:32.372
00:24:34.974 : en:00:24:34.974
00:31:52.411 : en:00:31:52.411
00:43:38.616 : en:00:43:38.616
00:50:05.002 : en:00:50:05.002
00:59:07.544 : en:00:59:07.544
01:08:18.595 : en:01:08:18.595
01:15:31.027 : en:01:15:31.027
01:21:59.415 : en:01:21:59.415
01:29:37.873 : en:01:29:37.873
Время раздачи: 4/7 - круглосуточно
Спасибо - это прекрасное словo, но если Вам реально хочется меня отблагодарить, оставайтесь на раздаче как можно дольше, и тогда наша благодарность будет обоюдной!!!!

[Цитировать]



Показать сообщения:    

Текущее время: 24-Авг 03:36

Часовой пояс: UTC + 6


Вы не можете начинать темы
Вы не можете отвечать на сообщения
Вы не можете редактировать свои сообщения
Вы не можете удалять свои сообщения
Вы не можете голосовать в опросах
Вы не можете прикреплять файлы к сообщениям
Вы не можете скачивать файлы

!ВНИМАНИЕ!
Сайт не предоставляет электронные версии произведений, а занимается лишь коллекционированием и каталогизацией ссылок, присылаемых и публикуемых на форуме нашими читателями. Если вы являетесь правообладателем какого-либо представленного материала и не желаете, чтобы ссылка на него находилась в нашем каталоге, свяжитесь с нами, и мы незамедлительно удалим ее. Файлы для обмена на трекере предоставлены пользователями сайта, и администрация не несет ответственности за их содержание. Просьба не заливать файлы, защищенные авторскими правами, а также файлы нелегального содержания!