[ Сегодня идет свободное скачивание без начисления Download ]


Статистика раздачи
Нет
 
   
 
Top  
 
 
-Ночные ласточки [8 серий из 8] (2012) HDTV- Русское название: Ночные ласточки / Ночные ведьмы
Год выпуска: 2013
Жанр: Боевик, Мелодрама

Дата российской премьеры: 28 января 2013
Режиссер: Михаил Кабанов
Актеры: Олеся Фаттахова, Екатерина Олькина, Татьяна Арнтгольц, Елизавета Нилова, Мария Пирогова, Дмитрий Мазуров, Олег Гераськин, Владимир Капустин, Александр Новик, Константин Спасский, Наталья Людскова, Анатолий Завьялов, Алексей Медведев, Максим Студеновский, Евгения Бурдихина, Лариса Маркина, Константин Шелягин, Дмитрий Лавров, Елисей Тарасенко, Надежда Евтехова, Денис Никифоров, Игорь Савочкин, Елена Куликова, Михаил Евланов, Евгений Ганелин, Анатолий Пашинин, Игорь Теплов, Александра Мареева, Юлия Ковалева, Виктор Хориняк, Виктор Либеров, Константин Демидов
Описание фильма:
Восьмого октября 1941 года Сталин подписал секретный приказ о формировании женских авиационных полков. В мировой практике таких соединений не было.
46-й Гвардейский бомбардировочный Таманский полк прошел боевой путь от Сальских степей и Дона до фашистской Германии. На ночных бомбардировщиках «По-2» отважные летчицы вместе со всеми частями Военно-Воздушных Сил наносили сокрушительные удары по врагу, разрушая переправы и оборонительные сооружения, уничтожая технику и живую силу противника. На истребителях и бомбардировщиках они, ни в чем не уступая мужчинам, громили врага. Фашисты прозвали летчиц «Ночными ведьмами». Полк совершил 24 тысячи боевых вылетов. В нем было 25 женщин Героев Советского Союза и России.
Продолжительность: 8 х ~ 00:49:33 серия
Качество видео: HDTV
Контейнер: Ts
Видео: MPEG-TS AVC, ~ 7869 Кбит/с, 1920x1080
Аудио: Русский (MP2, 2 ch, 192 Кбит/с), английский (АС3, 2 ch, 256 Кбит/с)

MediaInfo

General #1
ID : 1 (0x1)
Complete name : 01 серия.ts
Format : MPEG-TS
File size : 2.52 GiB
Duration : 41mn 11s
Overall bit rate mode : Variable
Overall bit rate : 8 754 Kbps
Video #2931
ID : 2931 (0xB73)
Menu ID : 1 (0x1)
Format : AVC
Format/Info : Advanced Video Codec
Format profile : High@L4.0
Format settings, CABAC : Yes
Format settings, ReFrames : 4 frames
Codec ID : 27
Duration : 41mn 11s
Bit rate : 7 869 Kbps
Width : 1 920 pixels
Height : 1 080 pixels
Display aspect ratio : 16:9
Frame rate : 25.000 fps
Color space : YUV
Chroma subsampling : 4:2:0
Bit depth : 8 bits
Scan type : MBAFF
Bits/(Pixel*Frame) : 0.152
Stream size : 2.26 GiB (90%)
Audio #2932
ID : 2932 (0xB74)
Menu ID : 1 (0x1)
Format : MPEG Audio
Format version : Version 1
Format profile : Layer 2
Mode : Joint stereo
Mode extension : Intensity Stereo + MS Stereo
Codec ID : 3
Duration : 41mn 11s
Bit rate mode : Constant
Bit rate : 192 Kbps
Channel(s) : 2 channels
Sampling rate : 48.0 KHz
Compression mode : Lossy
Stream size : 56.6 MiB (2%)
Language : Russian
Audio #2933
ID : 2933 (0xB75)
Menu ID : 1 (0x1)
Format : E-AC-3
Format/Info : Audio Coding 3
Format settings, Endianness : Big
Codec ID : 6
Duration : 41mn 11s
Bit rate mode : Constant
Bit rate : 256 Kbps
Channel(s) : 2 channels
Channel positions : Front: L R
Sampling rate : 48.0 KHz
Compression mode : Lossy
Stream size : 75.4 MiB (3%)
Language : English
Скриншоты: Время раздачи: 24/7 - круглосуточно

[Цитировать]

Топик был перенесен из форума Отечественные сериалы в форум Архив
cyrmos



Показать сообщения:    

Текущее время: 17-Авг 19:42

Часовой пояс: UTC + 6


Вы не можете начинать темы
Вы не можете отвечать на сообщения
Вы не можете редактировать свои сообщения
Вы не можете удалять свои сообщения
Вы не можете голосовать в опросах
Вы не можете прикреплять файлы к сообщениям
Вы не можете скачивать файлы

!ВНИМАНИЕ!
Сайт не предоставляет электронные версии произведений, а занимается лишь коллекционированием и каталогизацией ссылок, присылаемых и публикуемых на форуме нашими читателями. Если вы являетесь правообладателем какого-либо представленного материала и не желаете, чтобы ссылка на него находилась в нашем каталоге, свяжитесь с нами, и мы незамедлительно удалим ее. Файлы для обмена на трекере предоставлены пользователями сайта, и администрация не несет ответственности за их содержание. Просьба не заливать файлы, защищенные авторскими правами, а также файлы нелегального содержания!