[ Сегодня идет свободное скачивание без начисления Download ]


Статистика раздачи
Нет
 
   
 
Top  
 
 
-Летучий отряд Скотланд-Ярда / The Sweeney (2012) BDRemux- Русское название: Летучий отряд Скотланд-Ярда
Оригинальное название: The Sweeney
Год выпуска: 2012
Жанр: Боевик, Драма, Криминал
Производство: Великобритания, Vertigo Films, Embargo Films
Описание фильма:
Английская полиция прикладывает максимум усилий для того, чтобы преступники были наказаны. Но детектив Джек Риген борется с преступностью по-своему: грязными, нелегальными, жестокими методами…
Режиссер: Ник Лав
Актеры: Рэй Уинстон, Бен Дрю, Хейли Этвелл, Дамиан Льюис, Аллен Лич, Пол Андерсон, Алан Форд, Стивен Макинтош, Стивен Вэддингтон, Марк
Продолжительность: 01:52:30
Перевод: Одноголосый закадровый [den904]
Язык субтитров: Английский, Английский (SDH)

Дата мировой премьеры: 12 сентября 2012-ВИДЕО:
Видеокодек: MPEG-4 AVC/H.264
Битрейт видео: ~23985 kbps
Размер кадра: 1920 х 1080
Качество видео: BDRemux-ЗВУК:
Аудио 1: Русский, AC3 5.1, 448 kbps, 48 kHz
Аудио 2: Английский, DTS-HD MA 5.1, 2091 kbps, 48 kHz-Сэмпл: Ссылка-

MediaInfo:

Общее
Уникальный идентификатор : 183113792129495913004427316252439997617 (0x89C26EFD1568350F90CC8A16E69FECB1)
Полное имя : D:\Films\The_Sweeney.2012.1080p.BDRemux.mkv
Формат : Matroska
Версия формата : Version 2
Размер файла : 20,6 Гбайт
Продолжительность : 1 ч. 52 м.
Режим общего битрейта : Переменный
Общий поток : 26,2 Мбит/сек
Название фильма : The Sweeney
Дата кодирования : UTC 2013-01-11 06:53:57
Программа кодирования : mkvmerge v5.2.0 ('I can't explain') built on Dec 18 2011 18:12:03
Библиотека кодирования : libebml v1.2.3 + libmatroska v1.3.0
Видео
Идентификатор : 1
Формат : AVC
Формат/Информация : Advanced Video Codec
Профиль формата : High@L4.1
Параметр CABAC формата : Да
Параметр ReFrames формата : 4 кадра
Параметр GOP формата : M=1, N=12
Идентификатор кодека : V_MPEG4/ISO/AVC
Продолжительность : 1 ч. 52 м.
Вид битрейта : Переменный
Битрейт : 23,7 Мбит/сек
Максимальный битрейт : 36,0 Мбит/сек
Ширина : 1920 пикселей
Высота : 1080 пикселей
Соотношение сторон : 16:9
Частота кадров : 23,976 кадра/сек
Цветовое пространство : YUV
Субдискретизация насыщенности : 4:2:0
Битовая глубина : 8 бит
Тип развёртки : Прогрессивная
Бит/(Пиксели*Кадры) : 0.476
Размер потока : 18,6 Гбайт (90%)
Язык : English
Default : Да
Forced : Нет
Аудио #1
Идентификатор : 2
Формат : AC-3
Формат/Информация : Audio Coding 3
Расширение режима : CM (complete main)
Идентификатор кодека : A_AC3
Продолжительность : 1 ч. 52 м.
Вид битрейта : Постоянный
Битрейт : 448 Кбит/сек
Каналы : 6 каналов
Расположение каналов : Front: L C R, Side: L R, LFE
Частота : 48,0 КГц
Битовая глубина : 16 бит
Метод сжатия : С потерями
Размер потока : 361 Мбайт (2%)
Заголовок : VO den904
Язык : Russian
Default : Да
Forced : Нет
Аудио #2
Идентификатор : 3
Формат : DTS
Формат/Информация : Digital Theater Systems
Профиль формата : MA / Core
Идентификатор кодека : A_DTS
Продолжительность : 1 ч. 52 м.
Вид битрейта : Переменный
Битрейт : 1561 Кбит/сек / 1510 Кбит/сек
Каналы : 6 каналов
Расположение каналов : Front: L C R, Side: L R, LFE
Частота : 48,0 КГц
Битовая глубина : 24 бит
Метод сжатия : Без потерь / Lossy
Заголовок : Lossless
Язык : English
Default : Нет
Forced : Нет
Текст #1
Идентификатор : 4
Формат : UTF-8
Идентификатор кодека : S_TEXT/UTF8
Идентификатор кодека/Информация : UTF-8 Plain Text
Язык : English
Default : Нет
Forced : Нет
Текст #2
Идентификатор : 5
Формат : UTF-8
Идентификатор кодека : S_TEXT/UTF8
Идентификатор кодека/Информация : UTF-8 Plain Text
Заголовок : SDH
Язык : English
Default : Нет
Forced : Нет
Меню
00:00:00.000 : en:Chapter 00
00:02:30.483 : en:Chapter 01
00:08:25.379 : en:Chapter 02
00:14:03.801 : en:Chapter 03
00:18:37.199 : en:Chapter 04
00:23:48.802 : en:Chapter 05
00:30:36.543 : en:Chapter 06
00:39:29.700 : en:Chapter 07
00:51:49.439 : en:Chapter 08
00:56:04.819 : en:Chapter 09
01:02:58.107 : en:Chapter 10
01:06:33.197 : en:Chapter 11
01:13:10.135 : en:Chapter 12
01:16:45.851 : en:Chapter 13
01:22:14.012 : en:Chapter 14
01:26:23.928 : en:Chapter 15
01:29:36.537 : en:Chapter 16
01:35:08.369 : en:Chapter 17
01:41:53.398 : en:Chapter 18
01:49:25.016 : en:Chapter 19
-Скриншоты:
-Время раздачи: С 8:00 до 22:00 до 5 скачавших

[Цитировать]



Показать сообщения:    

Текущее время: 17-Авг 21:40

Часовой пояс: UTC + 6


Вы не можете начинать темы
Вы не можете отвечать на сообщения
Вы не можете редактировать свои сообщения
Вы не можете удалять свои сообщения
Вы не можете голосовать в опросах
Вы не можете прикреплять файлы к сообщениям
Вы не можете скачивать файлы

!ВНИМАНИЕ!
Сайт не предоставляет электронные версии произведений, а занимается лишь коллекционированием и каталогизацией ссылок, присылаемых и публикуемых на форуме нашими читателями. Если вы являетесь правообладателем какого-либо представленного материала и не желаете, чтобы ссылка на него находилась в нашем каталоге, свяжитесь с нами, и мы незамедлительно удалим ее. Файлы для обмена на трекере предоставлены пользователями сайта, и администрация не несет ответственности за их содержание. Просьба не заливать файлы, защищенные авторскими правами, а также файлы нелегального содержания!