[ Сегодня идет свободное скачивание без начисления Download ]


Статистика раздачи
Нет
 
   
 
Top  
 
 
Неслабый пол / The Opposite Sex (2014) BDRip 1080p Информация о фильме
Название: Неслабый пол
Оригинальное название: The Opposite Sex
Год выхода: 2014
Жанр: комедия
Режиссер: Дженнифер Финниган, Джонатан Силвермен
В ролях: Мена Сувари, Джофф Стульц, Кристин Ченоуэт, Эрик Робертс, Джош Хопкинс, Дженнифер Финниган, Дебра Джо Рапп, Дэна Эшбрук, Джонатан Силвермен, Эми Рутберг
О фильме:
Винс — адвокат, который привык выигрывать везде и всюду. Победитель по жизни, он меняет девушек, как перчатки. Успешный холостяк, для которого доступна любая девушка в баре… кроме Джейн. Знакомство со сногсшибательной блондинкой Джейн ставит жизнь Винса сног на голову. И теперь главная его цель — заполучить ее любой ценой. Но для этого придется играть по ее правилам.

Страна: США
Студия: Magna Entertainment, Verdi Productions
Продолжительность: 01:36:42
Перевод: Дублированный [iTunes]
Файл
Кодек: H.264
Качество: BDRip 1080p
Видео: MPEG-4 / AVC, 1920x1080 (16:9), 23.976 fps ~ 9260 Kbps
Звук:
AC3, 48 KHz 6 ch ~ 384 Kb/s (русский)
AC3, 48 KHz 2 ch ~ 448 Kb/s (английский)
Субтитры: отсутствуют

MI:

Общее
Уникальный идентификатор : 207125240058249872744523029502507180797 (0x9BD2DEC5DD10090992DD8F08AC9D62FD)
Полное имя : Q:TorFNeslabyj.pol.2O14.D.BDRip.1080p.mkv
Формат : Matroska
Версия формата : Version 4 / Version 2
Размер файла : 6,82 Гбайт
Продолжительность : 1 ч. 36 м.
Общий поток : 10,1 Мбит/сек
Дата кодирования : UTC 2016-06-13 02:37:56
Программа кодирования : mkvmerge v9.0.1 ('Obstacles') 64bit
Библиотека кодирования : libebml v1.3.3 + libmatroska v1.4.4
DURATION : 01:36:38.688000000
NUMBER_OF_FRAMES : 181209
NUMBER_OF_BYTES : 278337024
_STATISTICS_WRITING_APP : mkvmerge v9.0.1 ('Obstacles') 64bit
_STATISTICS_WRITING_DATE_UTC : 2016-06-13 02:37:56
_STATISTICS_TAGS : BPS DURATION NUMBER_OF_FRAMES NUMBER_OF_BYTES
Видео
Идентификатор : 1
Формат : AVC
Формат/Информация : Advanced Video Codec
Профиль формата : High@L4.1
Параметр CABAC формата : Да
Параметр ReFrames формата : 4 кадра
Идентификатор кодека : V_MPEG4/ISO/AVC
Продолжительность : 1 ч. 36 м.
Битрейт : 9262 Кбит/сек
Ширина : 1920 пикселей
Высота : 1080 пикселей
Соотношение сторон : 16:9
Частота кадров : 23,976 кадра/сек
Цветовое пространство : YUV
Субдискретизация насыщенности : 4:2:0
Битовая глубина : 8 бит
Тип развёртки : Прогрессивная
Бит/(Пиксели*Кадры) : 0.186
Размер потока : 6,12 Гбайт (90%)
Библиотека кодирования : x264 core 142 r2479kMod dd79a61
Настройки программы : cabac=1 / ref=4 / deblock=1:0:0 / analyse=0x3:0x133 / me=umh / subme=7 / psy=1 / fade_compensate=0.00 / psy_rd=1.00:0.00 / mixed_ref=1 / me_range=16 /
chroma_me=1 / trellis=1 / 8x8dct=1 / cqm=0 / deadzone=21,11 / fast_pskip=0 / chroma_qp_offset=-2 / threads=12 / lookahead_threads=2 / sliced_threads=0 / nr=0 / decimate=1 / interlaced=0 /
bluray_compat=0 / constrained_intra=0 / fgo=0 / bframes=3 / b_pyramid=2 / b_adapt=2 / b_bias=0 / direct=3 / weightb=1 / open_gop=0 / weightp=2 / keyint=250 / keyint_min=23 / scenecut=40 /
intra_refresh=0 / rc_lookahead=50 / rc=2pass / mbtree=1 / bitrate=9262 / ratetol=1.0 / qcomp=0.60 / qpmin=0 / qpmax=69 / qpstep=4 / cplxblur=20.0 / qblur=0.5 / ip_ratio=1.40 / aq=1:1.00
Язык : English
Default : Нет
Forced : Нет
DURATION : 01:36:41.713000000
NUMBER_OF_FRAMES : 139102
NUMBER_OF_BYTES : 6715674637
_STATISTICS_WRITING_APP : mkvmerge v9.0.1 ('Obstacles') 64bit
_STATISTICS_WRITING_DATE_UTC : 2016-06-13 02:37:56
_STATISTICS_TAGS : BPS DURATION NUMBER_OF_FRAMES NUMBER_OF_BYTES
Аудио #1
Идентификатор : 2
Формат : AC-3
Формат/Информация : Audio Coding 3
Расширение режима : CM (complete main)
Идентификатор кодека : A_AC3
Продолжительность : 1 ч. 36 м.
Вид битрейта : Постоянный
Битрейт : 384 Кбит/сек
Каналы : 6 каналов
Расположение каналов : Front: L C R, Side: L R, LFE
Частота : 48,0 КГц
Битовая глубина : 16 бит
Метод сжатия : С потерями
Размер потока : 266 Мбайт (4%)
Язык : Russian
Default : Да
Forced : Да
Аудио #2
Идентификатор : 3
Формат : AC-3
Формат/Информация : Audio Coding 3
Расширение режима : CM (complete main)
Идентификатор кодека : A_AC3
Продолжительность : 1 ч. 36 м.
Вид битрейта : Постоянный
Битрейт : 448 Кбит/сек
Каналы : 2 канала
Расположение каналов : Front: L R
Частота : 48,0 КГц
Битовая глубина : 16 бит
Метод сжатия : С потерями
Размер потока : 310 Мбайт (4%)
Язык : English
Default : Нет
Forced : Нет
Семпл

Скриншоты

[Цитировать]



Показать сообщения:    

Текущее время: 20-Авг 04:29

Часовой пояс: UTC + 6


Вы не можете начинать темы
Вы не можете отвечать на сообщения
Вы не можете редактировать свои сообщения
Вы не можете удалять свои сообщения
Вы не можете голосовать в опросах
Вы не можете прикреплять файлы к сообщениям
Вы не можете скачивать файлы

!ВНИМАНИЕ!
Сайт не предоставляет электронные версии произведений, а занимается лишь коллекционированием и каталогизацией ссылок, присылаемых и публикуемых на форуме нашими читателями. Если вы являетесь правообладателем какого-либо представленного материала и не желаете, чтобы ссылка на него находилась в нашем каталоге, свяжитесь с нами, и мы незамедлительно удалим ее. Файлы для обмена на трекере предоставлены пользователями сайта, и администрация не несет ответственности за их содержание. Просьба не заливать файлы, защищенные авторскими правами, а также файлы нелегального содержания!