[ Сегодня идет свободное скачивание без начисления Download ]


Статистика раздачи
Нет
 
   
 
Top  
 
 
-Зеленый Фонарь / Расширенная версия / Green Lantern / Extended Cut (2011) BDRemux- Русское название: Зеленый Фонарь
Оригинальное название: Green Lantern
Студия: Warner Bros. Pictures, De Line Pictures
Страна: США
Год выпуска: 2011
Жанр: фэнтези, фантастика, приключения, боевик, коммикс
Описание фильма:
Во Вселенной, столь же бесконечной, сколь и загадочной, многие века существовал отряд воинов, обладающих огромной силой. Защитники мира и справедливости, их называют Корпус Зеленых Фонарей. Братство воинов, поклявшихся защищать межгалактический закон, где каждый из них носит кольцо, дарующее ему сверхспособности. Но когда новый враг по имени Параллакс угрожает нарушить равновесие во Вселенной, их судьба и судьба Земли оказывается в руках новобранца, первого человека в истории отряда — Хэла Джордана.
Хэл — дерзкий и талантливый летчик-испытатель, но Зеленые Фонари не испытывают доверия и уважения к человечеству, ведь людям до этого ни разу не удалось обуздать безграничную силу кольца. Но Хэл — как недостающий кусочек мозаики, и вместе с решимостью и силой воли он обладает тем, чего не было ни у одного звездного воителя, — человечностью. Если при поддержке напарника и подруги детства Кэрол Феррис (Блейк Лайвли) Хэл сможет быстро научиться управлять мощью кольца и найдет мужество преодолеть свои страхи, он сможет не только доказать, что он является ключом к победе над Параллаксом… но и станет величайшим Зеленым Фонарем из всех.
Режиссер: Мартин Кэмпбелл / Martin Campbell
Актеры: Райан Рейнольдс, Блейк Лайвли, Питер Сарсгаард, Марк Стронг, Анджела Бассетт, Тим Роббинс, Джей О. Сэндерс, Джон Тенни, и др.
Продолжительность: 01:54:01
Перевод: Профессиональный |полное дублирование| + одноголосый |Вячеслав Замез|
Оригинальная аудиодорожка: Английская
Cубтитры: Русские srt + aнглийские SDH srt + pусские pgs + aнглийские SDH pgs


Рейтинг PG-13 - Детям до 13 лет просмотр не желателен
Видеокодек: MPEG-4 AVC/H.264
Битрейт видео: ~20993 kbps
Размер кадра: 1920x1080p
Качество видео: BDRemux
Аудио 1: Русский / Dolby Digital / 5.1 / 448 kbps / 48 kHz | Dub
Аудио 2: Украинский/ Dolby Digital / 5.1 / 448 kbps / 48 kHz | Dub
Аудио 3: Русский /DTS-HD MA / 5.1 / 48 kHz / 4022 kbps / 24-bit (DTS Core: 5.1 / 48 kHz / 1509 kbps / 24-bit) | Zamez
Аудио 4: Английский / DTS-HD MA / 5.1 / 48 kHz / 4110 kbps / 24-bit (DTS Core: 5.1 / 48 kHz / 1509 kbps / 24-bit) | OriginalСкриншоты:

Знаете ли вы, что...

Зелёный Фонарь был создан автором Биллом Фингером и художником Мартином Ноделлом в All-American Comics #16 (июль 1940).
Главными претендентами на роль Зеленого Фонаря, помимо Райана Рейнольдса, были Брэдли Купер и Джастин Тимберлейк. Главная роль могла также достаться Сэму Уортингтону, Крису Пайну и Джареду Лето.
Синестро (Марк Стронг) могли сыграть Хьюго Уивинг, Джеки Эрл Хейли и Джеффри Раш.

MediaInfo:

General
Complete name : O:\Green.Lantern.2011.Blu-ray.1080p.AVC.Rus.Ukr.Eng.mkv
Format : Matroska
File size : 23.9 GiB
Duration : 1h 54mn
Overall bit rate : 30.0 Mbps
Encoded date : UTC 2011-10-19 18:52:49
Writing application : mkvmerge v5.0.1 ('Es ist Sommer') built on Oct 9 2011 11:55:43
Writing library : libebml v1.2.2 + libmatroska v1.3.0
Video
ID : 1
Format : AVC
Format/Info : Advanced Video Codec
Format profile : High@L4.1
Format settings, CABAC : Yes
Format settings, ReFrames : 4 frames
Muxing mode : Container profile=Unknown@0.0
Codec ID : V_MPEG4/ISO/AVC
Duration : 1h 53mn
Width : 1 920 pixels
Height : 1 080 pixels
Display aspect ratio : 16:9
Frame rate : 23.976 fps
Resolution : 8 bits
Colorimetry : 4:2:0
Scan type : Progressive
Title : 20993 kbps
Audio #1
ID : 2
Format : AC-3
Format/Info : Audio Coding 3
Codec ID : A_AC3
Duration : 1h 54mn
Bit rate mode : Constant
Bit rate : 448 Kbps
Channel(s) : 6 channels
Channel positions : Front: L C R, Surround: L R, LFE
Sampling rate : 48.0 KHz
Stream size : 365 MiB (1%)
Title : Dub
Language : Russian
Audio #2
ID : 3
Format : AC-3
Format/Info : Audio Coding 3
Codec ID : A_AC3
Duration : 1h 54mn
Bit rate mode : Constant
Bit rate : 448 Kbps
Channel(s) : 6 channels
Channel positions : Front: L C R, Surround: L R, LFE
Sampling rate : 48.0 KHz
Stream size : 365 MiB (1%)
Title : Dub
Language : Ukrainian
Audio #3
ID : 4
Format : DTS
Format/Info : Digital Theater Systems
Format profile : MA
Codec ID : A_DTS
Duration : 1h 54mn
Bit rate mode : Variable
Channel(s) : 6 channels
Channel positions : Front: L C R, Surround: L R, LFE
Sampling rate : 48.0 KHz
Resolution : 24 bits
Title : VO zamez / DTS-HD MA 5.1 @ 4022 kbps
Language : Russian
Audio #4
ID : 5
Format : DTS
Format/Info : Digital Theater Systems
Format profile : MA
Codec ID : A_DTS
Duration : 1h 54mn
Bit rate mode : Variable
Channel(s) : 6 channels
Channel positions : Front: L C R, Surround: L R, LFE
Sampling rate : 48.0 KHz
Resolution : 24 bits
Title : DTS-HD MA 5.1 @ 4110 kbps
Text #1
ID : 6
Format : UTF-8
Codec ID : S_TEXT/UTF8
Codec ID/Info : UTF-8 Plain Text
Title : Forced
Language : Russian
Text #2
ID : 7
Format : UTF-8
Codec ID : S_TEXT/UTF8
Codec ID/Info : UTF-8 Plain Text
Language : Russian
Text #3
ID : 8
Format : UTF-8
Codec ID : S_TEXT/UTF8
Codec ID/Info : UTF-8 Plain Text
Text #4
ID : 9
Format : PGS
Codec ID : S_HDMV/PGS
Codec ID/Info : The same subtitle format used on BDs/HD-DVDs
Title : PGS
Language : Russian
Text #5
ID : 10
Format : PGS
Codec ID : S_HDMV/PGS
Codec ID/Info : The same subtitle format used on BDs/HD-DVDs
Title : PGS
Menu
00:00:00.000 : :00:00:00.000
00:06:37.814 : :00:06:37.814
00:16:36.078 : :00:16:36.078
00:24:36.141 : :00:24:36.141
00:33:13.909 : :00:33:13.909
00:40:33.806 : :00:40:33.806
00:48:23.818 : :00:48:23.818
00:57:05.464 : :00:57:05.464
01:04:24.527 : :01:04:24.527
01:15:01.831 : :01:15:01.831
01:23:11.486 : :01:23:11.486
01:34:29.455 : :01:34:29.455
01:42:22.762 : :01:42:22.762
01:47:15.346 : :01:47:15.346
Время раздачи: 24/7 - круглосуточно
Спасибо - это прекрасное словo, но если Вам реально хочется меня отблагодарить, оставайтесь на раздаче как можно дольше, и тогда наша благодарность будет обоюдной!!!!

[Цитировать]



Показать сообщения:    

Текущее время: 21-Авг 18:13

Часовой пояс: UTC + 6


Вы не можете начинать темы
Вы не можете отвечать на сообщения
Вы не можете редактировать свои сообщения
Вы не можете удалять свои сообщения
Вы не можете голосовать в опросах
Вы не можете прикреплять файлы к сообщениям
Вы не можете скачивать файлы

!ВНИМАНИЕ!
Сайт не предоставляет электронные версии произведений, а занимается лишь коллекционированием и каталогизацией ссылок, присылаемых и публикуемых на форуме нашими читателями. Если вы являетесь правообладателем какого-либо представленного материала и не желаете, чтобы ссылка на него находилась в нашем каталоге, свяжитесь с нами, и мы незамедлительно удалим ее. Файлы для обмена на трекере предоставлены пользователями сайта, и администрация не несет ответственности за их содержание. Просьба не заливать файлы, защищенные авторскими правами, а также файлы нелегального содержания!