[ Сегодня идет свободное скачивание без начисления Download ]


Статистика раздачи
Нет
 
   
 
Top  
 
 
-Pain - We Come In Peace (2012) Blu-Ray- Оригинальное название: Pain - We Come In Peace
Год выпуска: 2012
Жанр: Industrial Metal
Описание фильма:
Запись финального выступления первой части европейского турне PAIN, состоявшегося в стокгольмском Debaser Medis 13 ноября 2011 года, видео, снятые во время концерта команды на фестивале Masters Of Rock (Визовице, Чехия) в июле этого года, а также "куча безумного закулисного и записанного за пределами сцены материала".
Продолжительность: 02:52:00
Перевод: Отсутствует
Контейнер: BDMV
Битрейт видео:25.4 Мбит/сек 24fps
Размер кадра: 1920x1080
Качество видео: Blu-Ray
Аудиокодек: LPCM
Битрейт аудио: LPCM 48000Hz stereo 1536kbps

Треклист

Live @ DEBASER Stockholm
(incl. documentary / behind the scenes footage)
01. Let Me Out
02. Dancing With The Dead
03. End Of The Line
04. Zombie Slam
05. Psalms Of Extinction
06. Suicide Machine
07. Nailed To The Ground
08. It’s Only Them
09. The Great Pretender
10. I’m Going In
11. Monkey Business
12. Have A Drink On Me
13. Supersonic Bitch
14. Same Old Song
15. Shut Your Mouth
Live @ Masters Of Rock 2012
01. Crashed
02. Walking On Glass
03. I’m Going In
04. Monkey Business
05. Dirty Woman
06. Don’t Care
07. Feed The Demons
08. Dark Fields Of Pain
09. Eleanor Rigby
10. Stay Away
11. Bitch
12. The Great Pretender
13. Same Old Song
14. On And On
15. Shut Your Mouth (feat. Rob Dukes)
Video Clips:
- Dirty Woman
- The Great Pretender
- Have A Drink On Me
- Monkey Business
- Follow Me
Photo Gallery

BDInfo

Disc Title: Pain - We Come In Peace
Disc Size: 35 827 638 532 bytes
Protection: AACS
BD-Java: Yes
BDInfo: 0.5.6
********************
PLAYLIST: 01003.MPLS
********************
Код:
Total Video
Title Codec Length Movie Size Disc Size Bitrate Bitrate Main Audio Track Secondary Audio Track
----- ------ ------- -------------- -------------- ------- ------- ------------------ ---------------------
01003.MPLS AVC 1:24:03 17 088 356 352 35 827 638 532 27,11 24,12 LPCM 2.0 1536Kbps (48kHz/16-bit)
Код:
DISC INFO:
Disc Title: Pain - We Come In Peace
Disc Size: 35 827 638 532 bytes
Protection: AACS
BD-Java: Yes
BDInfo: 0.5.6
PLAYLIST REPORT:
Name: 01003.MPLS
Length: 1:24:03 (h:m:s)
Size: 17 088 356 352 bytes
Total Bitrate: 27,11 Mbps
VIDEO:
Codec Bitrate Description
----- ------- -----------
MPEG-4 AVC Video 24123 kbps 1080p / 24 fps / 16:9 / High Profile 4.1
AUDIO:
Codec Language Bitrate Description
----- -------- ------- -----------
LPCM Audio Undetermined 1536 kbps 2.0 / 48 kHz / 1536 kbps / 16-bit
SUBTITLES:
Codec Language Bitrate Description
----- -------- ------- -----------
Presentation Graphics English 2,530 kbps
FILES:
Name Time In Length Size Total Bitrate
---- ------- ------ ---- -------------
00003.M2TS 0:00:00.000 1:24:03.083 17 088 356 352 27 108
CHAPTERS:
Number Time In Length Avg Video Rate Max 1-Sec Rate Max 1-Sec Time Max 5-Sec Rate Max 5-Sec Time Max 10Sec Rate Max 10Sec Time Avg Frame Size Max Frame Size Max Frame Time
------ ------- ------ -------------- -------------- -------------- -------------- -------------- -------------- -------------- -------------- -------------- --------------
1 0:00:00.000 0:01:34.000 21 729 kbps 43 660 kbps 00:01:24.749 32 369 kbps 00:01:26.916 27 819 kbps 00:01:21.750 113 121 bytes 541 527 bytes 00:01:25.291
2 0:01:34.000 0:05:57.500 22 557 kbps 43 598 kbps 00:02:52.833 34 137 kbps 00:02:55.083 31 639 kbps 00:04:36.499 117 484 bytes 511 549 bytes 00:06:25.291
3 0:07:31.500 0:04:25.500 26 555 kbps 41 495 kbps 00:08:43.250 35 298 kbps 00:08:42.458 32 862 kbps 00:08:37.375 138 307 bytes 450 589 bytes 00:08:38.958
4 0:11:57.000 0:06:58.833 22 091 kbps 42 915 kbps 00:13:14.375 36 061 kbps 00:13:13.291 34 055 kbps 00:13:13.125 115 056 bytes 499 011 bytes 00:17:47.583
5 0:18:55.833 0:05:42.166 23 631 kbps 39 698 kbps 00:20:03.749 33 319 kbps 00:20:01.625 32 060 kbps 00:19:56.583 123 080 bytes 399 988 bytes 00:19:45.125
6 0:24:38.000 0:04:49.000 21 759 kbps 40 404 kbps 00:26:24.541 30 463 kbps 00:27:45.541 28 585 kbps 00:26:45.208 113 331 bytes 397 757 bytes 00:26:25.083
7 0:29:27.000 0:05:52.000 24 393 kbps 44 989 kbps 00:30:33.583 33 420 kbps 00:30:29.666 31 177 kbps 00:31:37.458 127 044 bytes 462 095 bytes 00:31:38.083
8 0:35:19.000 0:04:56.000 22 879 kbps 49 386 kbps 00:36:23.208 31 409 kbps 00:36:15.541 30 234 kbps 00:38:48.708 119 163 bytes 459 906 bytes 00:37:43.666
9 0:40:15.000 0:05:25.416 24 700 kbps 42 246 kbps 00:41:12.250 34 256 kbps 00:41:11.750 30 605 kbps 00:40:37.708 128 645 bytes 479 456 bytes 00:41:14.791
10 0:45:40.416 0:06:24.083 23 057 kbps 47 481 kbps 00:46:55.875 35 978 kbps 00:46:54.375 31 464 kbps 00:46:55.375 120 090 bytes 437 334 bytes 00:52:02.875
11 0:52:04.500 0:03:12.500 26 436 kbps 41 374 kbps 00:52:31.208 31 073 kbps 00:52:15.083 29 871 kbps 00:52:30.666 137 689 bytes 456 079 bytes 00:52:19.500
12 0:55:17.000 0:04:51.000 26 254 kbps 42 587 kbps 00:55:44.291 34 173 kbps 00:55:35.208 32 357 kbps 00:55:35.291 136 742 bytes 526 866 bytes 00:55:40.208
13 1:00:08.000 0:06:06.000 25 023 kbps 44 450 kbps 01:00:43.250 35 590 kbps 01:00:39.541 32 411 kbps 01:00:13.750 130 328 bytes 494 114 bytes 01:00:08.250
14 1:06:14.000 0:05:35.000 25 840 kbps 42 273 kbps 01:10:04.083 37 124 kbps 01:10:47.666 34 706 kbps 01:10:44.249 134 581 bytes 438 599 bytes 01:07:07.166
15 1:11:49.000 0:04:29.000 25 440 kbps 50 377 kbps 01:12:02.958 34 449 kbps 01:14:12.250 30 624 kbps 01:15:05.541 132 501 bytes 468 997 bytes 01:12:03.500
16 1:16:18.000 0:07:45.083 24 151 kbps 47 909 kbps 01:17:06.374 36 192 kbps 01:17:03.625 31 573 kbps 01:20:57.416 125 795 bytes 454 970 bytes 01:20:49.125
STREAM DIAGNOSTICS:
File PID Type Codec Language Seconds Bitrate Bytes Packets
---- --- ---- ----- -------- -------------- -------------- ------------- -----
00003.M2TS 4113 (0x1011) 0x1B AVC 5042,958 24 124 15 206 859 631 82 716 892
00003.M2TS 4352 (0x1100) 0x80 LPCM und (Undetermined) 5042,958 1 542 972 304 676 6 051 699
00003.M2TS 4608 (0x1200) 0x90 PGS eng (English) 5042,958 3 1 594 704 9 149
QUICK SUMMARY:
Disc Title: Pain - We Come In Peace
Disc Size: 35 827 638 532 bytes
Protection: AACS
BD-Java: Yes
Playlist: 01003.MPLS
Size: 17 088 356 352 bytes
Length: 1:24:03
Total Bitrate: 27,11 Mbps
Video: MPEG-4 AVC Video / 24123 kbps / 1080p / 24 fps / 16:9 / High Profile 4.1
Audio: Undetermined / LPCM Audio / 2.0 / 48 kHz / 1536 kbps / 16-bit
Subtitle: English / 2,530 kbps
********************
PLAYLIST: 01004.MPLS
********************
Код:
Total Video
Title Codec Length Movie Size Disc Size Bitrate Bitrate Main Audio Track Secondary Audio Track
----- ------ ------- -------------- -------------- ------- ------- ------------------ ---------------------
01004.MPLS AVC 1:06:41 13 557 547 008 35 827 638 532 27,11 24,12 LPCM 2.0 1536Kbps (48kHz/16-bit)
Код:
DISC INFO:
Disc Title: Pain - We Come In Peace
Disc Size: 35 827 638 532 bytes
Protection: AACS
BD-Java: Yes
BDInfo: 0.5.6
PLAYLIST REPORT:
Name: 01004.MPLS
Length: 1:06:41 (h:m:s)
Size: 13 557 547 008 bytes
Total Bitrate: 27,11 Mbps
VIDEO:
Codec Bitrate Description
----- ------- -----------
MPEG-4 AVC Video 24123 kbps 1080p / 24 fps / 16:9 / High Profile 4.1
AUDIO:
Codec Language Bitrate Description
----- -------- ------- -----------
LPCM Audio Undetermined 1536 kbps 2.0 / 48 kHz / 1536 kbps / 16-bit
FILES:
Name Time In Length Size Total Bitrate
---- ------- ------ ---- -------------
00004.M2TS 0:00:00.000 1:06:41.458 13 557 547 008 27 105
CHAPTERS:
Number Time In Length Avg Video Rate Max 1-Sec Rate Max 1-Sec Time Max 5-Sec Rate Max 5-Sec Time Max 10Sec Rate Max 10Sec Time Avg Frame Size Max Frame Size Max Frame Time
------ ------- ------ -------------- -------------- -------------- -------------- -------------- -------------- -------------- -------------- -------------- --------------
1 0:00:00.000 0:04:50.000 25 456 kbps 51 949 kbps 00:00:43.916 35 671 kbps 00:00:55.291 32 017 kbps 00:01:42.125 132 567 bytes 655 441 bytes 00:00:44.458
2 0:04:50.000 0:03:54.000 25 842 kbps 44 236 kbps 00:05:09.333 37 599 kbps 00:05:08.583 32 846 kbps 00:08:01.874 134 595 bytes 497 858 bytes 00:07:19.125
3 0:08:44.000 0:03:17.000 25 722 kbps 40 639 kbps 00:10:31.958 34 802 kbps 00:10:08.958 33 058 kbps 00:10:06.416 133 971 bytes 427 131 bytes 00:11:02.250
4 0:12:01.000 0:04:58.000 22 696 kbps 49 587 kbps 00:16:29.208 34 274 kbps 00:14:00.625 32 813 kbps 00:14:00.666 118 208 bytes 512 269 bytes 00:16:29.750
5 0:16:59.000 0:04:31.000 24 687 kbps 53 972 kbps 00:18:09.833 34 794 kbps 00:21:07.750 32 116 kbps 00:21:07.749 128 577 bytes 555 872 bytes 00:18:49.833
6 0:21:30.000 0:03:11.000 23 598 kbps 45 741 kbps 00:24:39.041 33 342 kbps 00:23:45.250 31 168 kbps 00:23:44.958 122 904 bytes 696 895 bytes 00:21:33.291
7 0:24:41.000 0:04:13.000 24 491 kbps 44 305 kbps 00:25:11.249 33 424 kbps 00:28:00.125 31 998 kbps 00:28:00.624 127 558 bytes 403 605 bytes 00:25:11.791
8 0:28:54.000 0:05:23.000 21 141 kbps 40 599 kbps 00:33:11.583 31 335 kbps 00:33:31.041 27 364 kbps 00:33:26.208 110 108 bytes 634 557 bytes 00:33:11.625
9 0:34:17.000 0:04:30.000 25 415 kbps 47 245 kbps 00:37:16.583 37 134 kbps 00:34:33.541 32 714 kbps 00:36:17.416 132 369 bytes 514 230 bytes 00:34:33.625
10 0:38:47.000 0:03:28.000 23 033 kbps 59 466 kbps 00:39:12.166 33 915 kbps 00:41:05.583 32 687 kbps 00:41:05.791 119 963 bytes 506 698 bytes 00:39:12.708
11 0:42:15.000 0:04:03.000 24 724 kbps 48 821 kbps 00:42:35.625 32 771 kbps 00:44:31.250 30 739 kbps 00:44:30.416 128 771 bytes 529 543 bytes 00:42:35.791
12 0:46:18.000 0:04:10.000 23 421 kbps 53 309 kbps 00:47:13.708 34 185 kbps 00:46:20.958 31 756 kbps 00:48:35.375 121 985 bytes 529 758 bytes 00:46:24.541
13 0:50:28.000 0:04:11.000 22 298 kbps 51 282 kbps 00:50:53.125 33 937 kbps 00:53:41.875 31 439 kbps 00:53:37.083 116 134 bytes 400 250 bytes 00:50:53.875
14 0:54:39.000 0:04:49.000 26 612 kbps 40 488 kbps 00:55:13.208 34 567 kbps 00:58:54.541 32 369 kbps 00:55:12.166 138 606 bytes 406 809 bytes 00:56:30.541
15 0:59:28.000 0:07:13.458 23 628 kbps 45 660 kbps 01:02:43.000 37 217 kbps 01:03:50.541 33 174 kbps 01:05:19.166 123 076 bytes 476 197 bytes 01:03:26.916
STREAM DIAGNOSTICS:
File PID Type Codec Language Seconds Bitrate Bytes Packets
---- --- ---- ----- -------- -------------- -------------- ------------- -----
00004.M2TS 4113 (0x1011) 0x1B AVC 4001,292 24 124 12 065 981 761 65 632 650
00004.M2TS 4352 (0x1100) 0x80 LPCM und (Undetermined) 4001,292 1 542 771 481 488 4 801 752
QUICK SUMMARY:
Disc Title: Pain - We Come In Peace
Disc Size: 35 827 638 532 bytes
Protection: AACS
BD-Java: Yes
Playlist: 01004.MPLS
Size: 13 557 547 008 bytes
Length: 1:06:41
Total Bitrate: 27,11 Mbps
Video: MPEG-4 AVC Video / 24123 kbps / 1080p / 24 fps / 16:9 / High Profile 4.1
Audio: Undetermined / LPCM Audio / 2.0 / 48 kHz / 1536 kbps / 16-bit
********************
PLAYLIST: 01005.MPLS
********************
Код:
Total Video
Title Codec Length Movie Size Disc Size Bitrate Bitrate Main Audio Track Secondary Audio Track
----- ------ ------- -------------- -------------- ------- ------- ------------------ ---------------------
01005.MPLS AVC 0:04:50 983 427 072 35 827 638 532 27,10 24,12 LPCM 2.0 1536Kbps (48kHz/16-bit)
Код:
DISC INFO:
Disc Title: Pain - We Come In Peace
Disc Size: 35 827 638 532 bytes
Protection: AACS
BD-Java: Yes
BDInfo: 0.5.6
PLAYLIST REPORT:
Name: 01005.MPLS
Length: 0:04:50 (h:m:s)
Size: 983 427 072 bytes
Total Bitrate: 27,10 Mbps
VIDEO:
Codec Bitrate Description
----- ------- -----------
MPEG-4 AVC Video 24120 kbps 1080p / 24 fps / 16:9 / High Profile 4.1
AUDIO:
Codec Language Bitrate Description
----- -------- ------- -----------
LPCM Audio Undetermined 1536 kbps 2.0 / 48 kHz / 1536 kbps / 16-bit
FILES:
Name Time In Length Size Total Bitrate
---- ------- ------ ---- -------------
00005.M2TS 0:00:00.000 0:04:50.291 983 427 072 27 102
CHAPTERS:
Number Time In Length Avg Video Rate Max 1-Sec Rate Max 1-Sec Time Max 5-Sec Rate Max 5-Sec Time Max 10Sec Rate Max 10Sec Time Avg Frame Size Max Frame Size Max Frame Time
------ ------- ------ -------------- -------------- -------------- -------------- -------------- -------------- -------------- -------------- -------------- --------------
1 0:00:00.000 0:04:50.291 24 120 kbps 39 838 kbps 00:03:25.291 31 542 kbps 00:04:42.208 28 933 kbps 00:04:37.416 125 624 bytes 408 362 bytes 00:01:00.833
STREAM DIAGNOSTICS:
File PID Type Codec Language Seconds Bitrate Bytes Packets
---- --- ---- ----- -------- -------------- -------------- ------------- -----
00005.M2TS 4113 (0x1011) 0x1B AVC 290,167 24 130 875 222 654 4 760 742
00005.M2TS 4352 (0x1100) 0x80 LPCM und (Undetermined) 290,167 1 543 55 968 876 348 354
QUICK SUMMARY:
Disc Title: Pain - We Come In Peace
Disc Size: 35 827 638 532 bytes
Protection: AACS
BD-Java: Yes
Playlist: 01005.MPLS
Size: 983 427 072 bytes
Length: 0:04:50
Total Bitrate: 27,10 Mbps
Video: MPEG-4 AVC Video / 24120 kbps / 1080p / 24 fps / 16:9 / High Profile 4.1
Audio: Undetermined / LPCM Audio / 2.0 / 48 kHz / 1536 kbps / 16-bit
********************
PLAYLIST: 01009.MPLS
********************
Код:
Total Video
Title Codec Length Movie Size Disc Size Bitrate Bitrate Main Audio Track Secondary Audio Track
----- ------ ------- -------------- -------------- ------- ------- ------------------ ---------------------
01009.MPLS AVC 0:04:23 893 005 824 35 827 638 532 27,11 24,13 LPCM 2.0 1536Kbps (48kHz/16-bit)
Код:
DISC INFO:
Disc Title: Pain - We Come In Peace
Disc Size: 35 827 638 532 bytes
Protection: AACS
BD-Java: Yes
BDInfo: 0.5.6
PLAYLIST REPORT:
Name: 01009.MPLS
Length: 0:04:23 (h:m:s)
Size: 893 005 824 bytes
Total Bitrate: 27,11 Mbps
VIDEO:
Codec Bitrate Description
----- ------- -----------
MPEG-4 AVC Video 24129 kbps 1080p / 24 fps / 16:9 / High Profile 4.1
AUDIO:
Codec Language Bitrate Description
----- -------- ------- -----------
LPCM Audio Undetermined 1536 kbps 2.0 / 48 kHz / 1536 kbps / 16-bit
FILES:
Name Time In Length Size Total Bitrate
---- ------- ------ ---- -------------
00009.M2TS 0:00:00.000 0:04:23.500 893 005 824 27 112
CHAPTERS:
Number Time In Length Avg Video Rate Max 1-Sec Rate Max 1-Sec Time Max 5-Sec Rate Max 5-Sec Time Max 10Sec Rate Max 10Sec Time Avg Frame Size Max Frame Size Max Frame Time
------ ------- ------ -------------- -------------- -------------- -------------- -------------- -------------- -------------- -------------- -------------- --------------
1 0:00:00.000 0:04:23.500 24 129 kbps 28 020 kbps 00:02:41.375 26 779 kbps 00:04:14.125 26 003 kbps 00:04:09.916 125 673 bytes 346 265 bytes 00:04:22.666
STREAM DIAGNOSTICS:
File PID Type Codec Language Seconds Bitrate Bytes Packets
---- --- ---- ----- -------- -------------- -------------- ------------- -----
00009.M2TS 4113 (0x1011) 0x1B AVC 263,417 24 137 794 758 507 4 323 118
00009.M2TS 4352 (0x1100) 0x80 LPCM und (Undetermined) 263,417 1 543 50 802 800 316 200
QUICK SUMMARY:
Disc Title: Pain - We Come In Peace
Disc Size: 35 827 638 532 bytes
Protection: AACS
BD-Java: Yes
Playlist: 01009.MPLS
Size: 893 005 824 bytes
Length: 0:04:23
Total Bitrate: 27,11 Mbps
Video: MPEG-4 AVC Video / 24129 kbps / 1080p / 24 fps / 16:9 / High Profile 4.1
Audio: Undetermined / LPCM Audio / 2.0 / 48 kHz / 1536 kbps / 16-bit
********************
PLAYLIST: 01008.MPLS
********************
Код:
Total Video
Title Codec Length Movie Size Disc Size Bitrate Bitrate Main Audio Track Secondary Audio Track
----- ------ ------- -------------- -------------- ------- ------- ------------------ ---------------------
01008.MPLS AVC 0:04:14 861 480 960 35 827 638 532 27,10 24,12 LPCM 2.0 1536Kbps (48kHz/16-bit)
Код:
DISC INFO:
Disc Title: Pain - We Come In Peace
Disc Size: 35 827 638 532 bytes
Protection: AACS
BD-Java: Yes
BDInfo: 0.5.6
PLAYLIST REPORT:
Name: 01008.MPLS
Length: 0:04:14 (h:m:s)
Size: 861 480 960 bytes
Total Bitrate: 27,10 Mbps
VIDEO:
Codec Bitrate Description
----- ------- -----------
MPEG-4 AVC Video 24120 kbps 1080p / 24 fps / 16:9 / High Profile 4.1
AUDIO:
Codec Language Bitrate Description
----- -------- ------- -----------
LPCM Audio Undetermined 1536 kbps 2.0 / 48 kHz / 1536 kbps / 16-bit
FILES:
Name Time In Length Size Total Bitrate
---- ------- ------ ---- -------------
00008.M2TS 0:00:00.000 0:04:14.291 861 480 960 27 102
CHAPTERS:
Number Time In Length Avg Video Rate Max 1-Sec Rate Max 1-Sec Time Max 5-Sec Rate Max 5-Sec Time Max 10Sec Rate Max 10Sec Time Avg Frame Size Max Frame Size Max Frame Time
------ ------- ------ -------------- -------------- -------------- -------------- -------------- -------------- -------------- -------------- -------------- --------------
1 0:00:00.000 0:04:14.291 24 120 kbps 40 123 kbps 00:02:18.166 35 653 kbps 00:00:45.500 32 890 kbps 00:02:59.041 125 625 bytes 362 484 bytes 00:01:39.500
STREAM DIAGNOSTICS:
File PID Type Codec Language Seconds Bitrate Bytes Packets
---- --- ---- ----- -------- -------------- -------------- ------------- -----
00008.M2TS 4113 (0x1011) 0x1B AVC 254,125 24 136 766 687 606 4 170 408
00008.M2TS 4352 (0x1100) 0x80 LPCM und (Undetermined) 254,125 1 543 49 028 076 305 154
QUICK SUMMARY:
Disc Title: Pain - We Come In Peace
Disc Size: 35 827 638 532 bytes
Protection: AACS
BD-Java: Yes
Playlist: 01008.MPLS
Size: 861 480 960 bytes
Length: 0:04:14
Total Bitrate: 27,10 Mbps
Video: MPEG-4 AVC Video / 24120 kbps / 1080p / 24 fps / 16:9 / High Profile 4.1
Audio: Undetermined / LPCM Audio / 2.0 / 48 kHz / 1536 kbps / 16-bit
********************
PLAYLIST: 01007.MPLS
********************
Код:
Total Video
Title Codec Length Movie Size Disc Size Bitrate Bitrate Main Audio Track Secondary Audio Track
----- ------ ------- -------------- -------------- ------- ------- ------------------ ---------------------
01007.MPLS AVC 0:04:11 852 154 368 35 827 638 532 27,11 24,12 LPCM 2.0 1536Kbps (48kHz/16-bit)
Код:
DISC INFO:
Disc Title: Pain - We Come In Peace
Disc Size: 35 827 638 532 bytes
Protection: AACS
BD-Java: Yes
BDInfo: 0.5.6
PLAYLIST REPORT:
Name: 01007.MPLS
Length: 0:04:11 (h:m:s)
Size: 852 154 368 bytes
Total Bitrate: 27,11 Mbps
VIDEO:
Codec Bitrate Description
----- ------- -----------
MPEG-4 AVC Video 24124 kbps 1080p / 24 fps / 16:9 / High Profile 4.1
AUDIO:
Codec Language Bitrate Description
----- -------- ------- -----------
LPCM Audio Undetermined 1536 kbps 2.0 / 48 kHz / 1536 kbps / 16-bit
FILES:
Name Time In Length Size Total Bitrate
---- ------- ------ ---- -------------
00007.M2TS 0:00:00.000 0:04:11.500 852 154 368 27 106
CHAPTERS:
Number Time In Length Avg Video Rate Max 1-Sec Rate Max 1-Sec Time Max 5-Sec Rate Max 5-Sec Time Max 10Sec Rate Max 10Sec Time Avg Frame Size Max Frame Size Max Frame Time
------ ------- ------ -------------- -------------- -------------- -------------- -------------- -------------- -------------- -------------- -------------- --------------
1 0:00:00.000 0:04:11.500 24 124 kbps 45 250 kbps 00:00:32.041 35 511 kbps 00:00:28.125 32 919 kbps 00:03:45.708 125 646 bytes 407 835 bytes 00:00:50.666
STREAM DIAGNOSTICS:
File PID Type Codec Language Seconds Bitrate Bytes Packets
---- --- ---- ----- -------- -------------- -------------- ------------- -----
00007.M2TS 4113 (0x1011) 0x1B AVC 251,417 24 132 758 397 176 4 125 294
00007.M2TS 4352 (0x1100) 0x80 LPCM und (Undetermined) 251,417 1 543 48 489 200 301 800
QUICK SUMMARY:
Disc Title: Pain - We Come In Peace
Disc Size: 35 827 638 532 bytes
Protection: AACS
BD-Java: Yes
Playlist: 01007.MPLS
Size: 852 154 368 bytes
Length: 0:04:11
Total Bitrate: 27,11 Mbps
Video: MPEG-4 AVC Video / 24124 kbps / 1080p / 24 fps / 16:9 / High Profile 4.1
Audio: Undetermined / LPCM Audio / 2.0 / 48 kHz / 1536 kbps / 16-bit
********************
PLAYLIST: 01006.MPLS
********************
Код:
Total Video
Title Codec Length Movie Size Disc Size Bitrate Bitrate Main Audio Track Secondary Audio Track
----- ------ ------- -------------- -------------- ------- ------- ------------------ ---------------------
01006.MPLS AVC 0:04:06 835 411 968 35 827 638 532 27,11 24,13 LPCM 2.0 1536Kbps (48kHz/16-bit)
Код:
DISC INFO:
Disc Title: Pain - We Come In Peace
Disc Size: 35 827 638 532 bytes
Protection: AACS
BD-Java: Yes
BDInfo: 0.5.6
PLAYLIST REPORT:
Name: 01006.MPLS
Length: 0:04:06 (h:m:s)
Size: 835 411 968 bytes
Total Bitrate: 27,11 Mbps
VIDEO:
Codec Bitrate Description
----- ------- -----------
MPEG-4 AVC Video 24126 kbps 1080p / 24 fps / 16:9 / High Profile 4.1
AUDIO:
Codec Language Bitrate Description
----- -------- ------- -----------
LPCM Audio Undetermined 1536 kbps 2.0 / 48 kHz / 1536 kbps / 16-bit
FILES:
Name Time In Length Size Total Bitrate
---- ------- ------ ---- -------------
00006.M2TS 0:00:00.000 0:04:06.541 835 411 968 27 108
CHAPTERS:
Number Time In Length Avg Video Rate Max 1-Sec Rate Max 1-Sec Time Max 5-Sec Rate Max 5-Sec Time Max 10Sec Rate Max 10Sec Time Avg Frame Size Max Frame Size Max Frame Time
------ ------- ------ -------------- -------------- -------------- -------------- -------------- -------------- -------------- -------------- -------------- --------------
1 0:00:00.000 0:04:06.541 24 126 kbps 58 908 kbps 00:00:21.791 32 121 kbps 00:03:16.916 30 105 kbps 00:01:12.541 125 656 bytes 759 879 bytes 00:00:22.208
STREAM DIAGNOSTICS:
File PID Type Codec Language Seconds Bitrate Bytes Packets
---- --- ---- ----- -------- -------------- -------------- ------------- -----
00006.M2TS 4113 (0x1011) 0x1B AVC 246,417 24 138 743 506 820 4 044 273
00006.M2TS 4352 (0x1100) 0x80 LPCM und (Undetermined) 246,417 1 543 47 533 876 295 854
QUICK SUMMARY:
Disc Title: Pain - We Come In Peace
Disc Size: 35 827 638 532 bytes
Protection: AACS
BD-Java: Yes
Playlist: 01006.MPLS
Size: 835 411 968 bytes
Length: 0:04:06
Total Bitrate: 27,11 Mbps
Video: MPEG-4 AVC Video / 24126 kbps / 1080p / 24 fps / 16:9 / High Profile 4.1
Audio: Undetermined / LPCM Audio / 2.0 / 48 kHz / 1536 kbps / 16-bit
Скриншоты:

[Цитировать]



Показать сообщения:    

Текущее время: 25-Июл 20:56

Часовой пояс: UTC + 6


Вы не можете начинать темы
Вы не можете отвечать на сообщения
Вы не можете редактировать свои сообщения
Вы не можете удалять свои сообщения
Вы не можете голосовать в опросах
Вы не можете прикреплять файлы к сообщениям
Вы не можете скачивать файлы

!ВНИМАНИЕ!
Сайт не предоставляет электронные версии произведений, а занимается лишь коллекционированием и каталогизацией ссылок, присылаемых и публикуемых на форуме нашими читателями. Если вы являетесь правообладателем какого-либо представленного материала и не желаете, чтобы ссылка на него находилась в нашем каталоге, свяжитесь с нами, и мы незамедлительно удалим ее. Файлы для обмена на трекере предоставлены пользователями сайта, и администрация не несет ответственности за их содержание. Просьба не заливать файлы, защищенные авторскими правами, а также файлы нелегального содержания!