[ Сегодня идет свободное скачивание без начисления Download ]


Статистика раздачи
Нет
 
   
 
Top  
 
 
Дети шпионов 4D / Spy Kids: All the Time in the World in 4D«Первый фильм в формате 4D»
Год выпуска: 2011
Страна: США
Производство: Dimension Films, Troublemaker Studios
Жанр: Фантастика, Боевик, Комедия, Приключения, Семейный
Режиссер: Роберт Родригес
В ролях: Джессика Альба, Дэнни Трехо, Джоэль МакХэйл, Алекса Вега, Дэрил Сабара, Роуэн Бланчард, Мэйсон Кук, Джереми Пивен, Белль Солорзано, Дженни Солорзано
Перевод: Профессиональный (полное дублирование)
Субтитры: Отсутствуют
Описание: Брат и сестра поневоле должны стать крутыми шпионами, чтобы помешать мечтающему о мировом господстве злодею, и выручить из беды собственную мачеху — секретного суперагента, удалившегося на покой.
[kp]477764[/kp] [imdb]tt1517489[/imdb]
Качество: HDRip
Продолжительность: 01:27:45
Формат: AVI
Видео кодек: XviD
Аудио кодек: MP3
Видео: 720x400 (16:9), 23.976 fps, XviD MPEG-4 ~981 kbps avg, 0.142 bit/pixel
Аудио: 48 kHz, MPEG Layer 3, 2 ch, ~128.00 kbps avg
Премьера (мир): 18 августа 2011
Премьера (РФ): 18 августа 2011, «Централ Партнершип»

Media Info

Видео
Идентификатор                            : 0
Формат                                   : MPEG-4 Visual
Профиль формата                          : Advanced Simple@L5
Параметр BVOP формата                    : 2
Параметр QPel формата                    : Нет
Параметр GMC формата                     : Без точки перехода
Параметр матрицы формата                 : Выборочная
Идентификатор кодека                     : XVID
Идентификатор кодека/Подсказка           : XviD
Продолжительность                        : 1 ч. 27 м.
Битрейт                                  : 981 Кбит/сек
Ширина                                   : 720 пикселей
Высота                                   : 400 пикселей
Соотношение сторон                       : 16:9
Частота кадров                           : 23,976 кадра/сек
Цветовое пространство                    : YUV
Субдискретизация насыщенности            : 4:2:0
Битовая глубина                          : 8 бит
Тип развёртки                            : Прогрессивная
Метод сжатия                             : С потерями
Бит/(Пиксели*Кадры)                      : 0.142
Размер потока                            : 616 Мбайт (88%)
Библиотека кодирования                   : XviD 58
Аудио
Идентификатор                            : 1
Формат                                   : MPEG Audio
Версия формата                           : Version 1
Профиль формата                          : Layer 3
Идентификатор кодека                     : 55
Идентификатор кодека/Подсказка           : MP3
Продолжительность                        : 1 ч. 27 м.
Вид битрейта                             : Постоянный
Битрейт                                  : 128 Кбит/сек
Каналы                                   : 2 канала
Частота                                  : 48,0 КГц
Метод сжатия                             : С потерями
Размер потока                            : 80,3 Мбайт (11%)
Выравнивание                             : Соединение по промежуткам
Продолжительность промежутка             : 42  мс. (1,00 видеокадр)
Время предзагрузки промежутка            : 504  мс.
Библиотека кодирования                   : LAME3.98r
Настройки программы                      : -m s -V 4 -q 7 -lowpass 17 -b 128

Скриншоты



[Цитировать]



Показать сообщения:    

Текущее время: 28-Июл 15:03

Часовой пояс: UTC + 6


Вы не можете начинать темы
Вы не можете отвечать на сообщения
Вы не можете редактировать свои сообщения
Вы не можете удалять свои сообщения
Вы не можете голосовать в опросах
Вы не можете прикреплять файлы к сообщениям
Вы не можете скачивать файлы

!ВНИМАНИЕ!
Сайт не предоставляет электронные версии произведений, а занимается лишь коллекционированием и каталогизацией ссылок, присылаемых и публикуемых на форуме нашими читателями. Если вы являетесь правообладателем какого-либо представленного материала и не желаете, чтобы ссылка на него находилась в нашем каталоге, свяжитесь с нами, и мы незамедлительно удалим ее. Файлы для обмена на трекере предоставлены пользователями сайта, и администрация не несет ответственности за их содержание. Просьба не заливать файлы, защищенные авторскими правами, а также файлы нелегального содержания!