[ Сегодня идет свободное скачивание без начисления Download ]


Статистика раздачи
Скачал: [ 1 ]
 
   
 
 
 
 
Дуэлянт (2016) Информация о фильме
Название: Дуэлянт
Год выхода: 2016
Страна: Россия
Жанр: Драма
Производство: Нон-стоп Продакшн
Перевод: Не требуется
Субтитры: Нет
Продолжительность: 01:44:43
Режиссер: Алексей Мизгирёв
В ролях: Пётр Фёдоров, Владимир Машков, Юлия Хлынина, Франциска Петри, Мартин Вуттке, Сергей Гармаш, Павел Табаков, Юрий Колокольников, Александр Яценко, Пьер Бурель
Описание:
В центре сюжета профессиональный дуэлянт, который зарабатывает на жизнь, участвуя в поединках за других людей.

Релиз: Цифровая лицензия iTunes. Релиз без рекламы.

MI

General
Unique ID : 183709162459155749938792386100333811704 (0x8A3519031E68211395085F9864E297F8)
Complete name : Dy3lHyat.2016.O.WEB-DL.1080p.mkv
Format : Matroska
Format version : Version 4 / Version 2
File size : 3.62 GiB
Duration : 1 h 44 min
Overall bit rate : 4 953 kb/s
Encoded date : UTC 2016-10-30 19:16:30
Writing application : mkvmerge v8.3.0 ('Over the Horizon') 64bit
Writing library : libebml v1.3.1 + libmatroska v1.4.2
Video
ID : 1
Format : AVC
Format/Info : Advanced Video Codec
Format profile : High@L4
Format settings, CABAC : Yes
Format settings, ReFrames : 5 frames
Codec ID : V_MPEG4/ISO/AVC
Duration : 1 h 44 min
Bit rate : 4 471 kb/s
Width : 1 920 pixels
Height : 810 pixels
Display aspect ratio : 2.40:1
Frame rate mode : Constant
Frame rate : 25.000 FPS
Color space : YUV
Chroma subsampling : 4:2:0
Bit depth : 8 bits
Scan type : Progressive
Bits/(Pixel*Frame) : 0.115
Stream size : 3.27 GiB (90%)
Language : English
Default : Yes
Forced : No
Color range : Limited
Color primaries : BT.709
Transfer characteristics : BT.709
Matrix coefficients : BT.709
Audio
ID : 2
Format : AC-3
Format/Info : Audio Coding 3
Mode extension : CM (complete main)
Format settings, Endianness : Big
Codec ID : A_AC3
Duration : 1 h 44 min
Bit rate mode : Constant
Bit rate : 384 kb/s
Channel(s) : 2 channels
Channel positions : Front: L R
Sampling rate : 48.0 kHz
Frame rate : 31.250 FPS (1536 spf)
Compression mode : Lossy
Stream size : 288 MiB (8%)
Default : Yes
Forced : No
Menu
00:00:00.000 : en:1
00:06:46.560 : en:2
00:14:28.240 : en:3
00:21:11.040 : en:4
00:26:11.000 : en:5
00:30:12.000 : en:6
00:36:18.960 : en:7
00:43:45.240 : en:8
00:49:11.720 : en:9
00:56:21.320 : en:10
01:02:33.280 : en:11
01:08:04.240 : en:12
01:13:35.240 : en:13
01:20:05.440 : en:14
01:27:22.320 : en:15
01:34:01.040 : en:16
Технические данные файла:
Качество: WEB-DL 1080p
Формат: MKV
Видео кодек: MPEG-4 AVC
Аудио кодек: AC3
Видео: 1920x810, 25.000 fps, 4500 kbps avg, 0.115 bit/pixel
Аудио: 48 kHz, 2 ch, 384 kbps avg

Скриншоты

[Цитировать]

Давно я хороших фильмов не смотрел, а этот фильм хороший!!! Мне очень понравился!!! ok

[Цитировать]



Показать сообщения:    

Текущее время: 12-Дек 15:11

Часовой пояс: UTC + 6


Вы не можете начинать темы
Вы не можете отвечать на сообщения
Вы не можете редактировать свои сообщения
Вы не можете удалять свои сообщения
Вы не можете голосовать в опросах
Вы не можете прикреплять файлы к сообщениям
Вы не можете скачивать файлы

!ВНИМАНИЕ!
Сайт не предоставляет электронные версии произведений, а занимается лишь коллекционированием и каталогизацией ссылок, присылаемых и публикуемых на форуме нашими читателями. Если вы являетесь правообладателем какого-либо представленного материала и не желаете, чтобы ссылка на него находилась в нашем каталоге, свяжитесь с нами, и мы незамедлительно удалим ее. Файлы для обмена на трекере предоставлены пользователями сайта, и администрация не несет ответственности за их содержание. Просьба не заливать файлы, защищенные авторскими правами, а также файлы нелегального содержания!