[ Сегодня идет свободное скачивание без начисления Download ]


Статистика раздачи
Нет
 
   
 
Top  
 
 
-Любимые смертные грехи / Favorite Deadly Sins (1995) DVDRip- Страна: США
Русское название: Любимые смертные грехи
Оригинальное название: Favorite Deadly Sins
Год выпуска: 1995
Жанр: Черная комедия, Альманах
Описание фильма:
Начинается эта комедия с греха "Похоть". В этой новелле режиссера Дениса Лири у мечтательного охранника возвращается интерес к жене (Шиорра) после того, как он узнает, что предмет его вожделения - соседка из окна напротив - предпочитает лесбийскую любовь. Герой новеллы режиссера Дэвида Джэблина "Жадность" продюсер Джо Мантенья, состряпавший криминальную ткань для съемки скандального телефильма на основе действительных событий, никак не ожидал, что сам попадет в камеру смертников. В третьей новелле режиссера Дэвида Джэблина "Злоба" Эндрю Клэй, взбешенный тем, что жена послала его ночью за тампонами, повздорил с ребятами, грабящими магазин, и получил с десяток пуль в корпус. Даже при распределении в чистилище он поднял скандал и не побоялся обложить матюгами самого Люцифера, который его ругани не выдержал и послал грубияна обратно. Судя по тому, что грехов семь, а видели мы только три новеллы, продолжение еще последует. Сделаны все очень неплохо, с черным юмором, в лучших традициях "Баек из склепа" и аналогичных теленовелл (М. Иванов)
Режиссер: Денис Лири /Denis Leary/, Дэвид Джэблин /David Jablin
Актеры: Денис Лири /Denis Leary/, Аннабелла Шиорра /Annabella Sciorra/, Таня Похикотте, Саверио Гуэрра /Saverio Guerra/, Джо Мантенья /Joe Mantegna/, Кэссиди Рэй /Cassidy Rae/, Брайан Кит /Brian Keith/, Уильям Рэгсдэйл /William Ragsdale/, Аллан Рич /Allan Rich/, Эндрю Клэй /Andrew Clay/, Фэрра Форке, Тед Дэвис /Ted Davis/, Геррит Грэм /Gerrit Graham/, Клайд Кусатсу /Clyde Kusatsu
Продолжительность: 01:40:11
Перевод: Одноголосный закадровый

Качество: DVDRip
Формат: AVI
Видео: XviD, 640x480, 23.976 fps, 834 kbps
Аудио 1: MP 3, 44100 Гц, 2ch, 192 Кбит/сек, Русский (П.Санаев)
Аудио 2: MP 3, 48000 Гц, 2ch, VBR 127 Кбит/сек, Original, English
Субтитры: нет
Сэмпл: Ссылка

Mediainfo

General
Complete name : Любимые смертные грехи. Favorite Deadly Sins. 1995. (Альманах. Черная комедия). DVDRip.avi
Format : AVI
Format/Info : Audio Video Interleave
File size : 839 MiB
Duration : 1h 40mn
Overall bit rate mode : Variable
Overall bit rate : 1 171 Kbps
Writing application : VirtualDubMod 1.5.10.2 (build 2540/release)
Writing library : VirtualDubMod build 2540/release
Video
ID : 0
Format : MPEG-4 Visual
Format profile : Advanced Simple@L5
Format settings, BVOP : 2
Format settings, QPel : No
Format settings, GMC : No warppoints
Format settings, Matrix : Default (MPEG)
Codec ID : XVID
Codec ID/Hint : XviD
Duration : 1h 40mn
Bit rate : 834 Kbps
Width : 640 pixels
Height : 480 pixels
Display aspect ratio : 4:3
Frame rate : 23.976 fps
Color space : YUV
Chroma subsampling : 4:2:0
Bit depth : 8 bits
Scan type : Progressive
Compression mode : Lossy
Bits/(Pixel*Frame) : 0.113
Stream size : 598 MiB (71%)
Writing library : XviD 1.2.0.dev47 (UTC 2006-11-01)
Audio #1
ID : 1
Format : MPEG Audio
Format version : Version 1
Format profile : Layer 3
Mode : Joint stereo
Codec ID : 55
Codec ID/Hint : MP3
Duration : 1h 40mn
Bit rate mode : Constant
Bit rate : 192 Kbps
Channel(s) : 2 channels
Sampling rate : 44.1 KHz
Compression mode : Lossy
Stream size : 138 MiB (16%)
Alignment : Split accross interleaves
Interleave, duration : 42 ms (1.00 video frame)
Interleave, preload duration : 500 ms
Audio #2
ID : 2
Format : MPEG Audio
Format version : Version 1
Format profile : Layer 3
Mode : Joint stereo
Mode extension : MS Stereo
Codec ID : 55
Codec ID/Hint : MP3
Duration : 1h 40mn
Bit rate mode : Variable
Bit rate : 128 Kbps
Channel(s) : 2 channels
Sampling rate : 48.0 KHz
Compression mode : Lossy
Stream size : 91.1 MiB (11%)
Alignment : Aligned on interleaves
Interleave, duration : 24 ms (0.58 video frame)
Interleave, preload duration : 543 ms
Writing library : LAME3.90.
Encoding settings : -m j -V 4 -q 2 -lowpass 17.6 --abr 128
Скриншоты:


Время раздачи: С 10:00 до 17:00 (мск)

[Цитировать]



Показать сообщения:    

Текущее время: 21-Авг 16:26

Часовой пояс: UTC + 6


Вы не можете начинать темы
Вы не можете отвечать на сообщения
Вы не можете редактировать свои сообщения
Вы не можете удалять свои сообщения
Вы не можете голосовать в опросах
Вы не можете прикреплять файлы к сообщениям
Вы не можете скачивать файлы

!ВНИМАНИЕ!
Сайт не предоставляет электронные версии произведений, а занимается лишь коллекционированием и каталогизацией ссылок, присылаемых и публикуемых на форуме нашими читателями. Если вы являетесь правообладателем какого-либо представленного материала и не желаете, чтобы ссылка на него находилась в нашем каталоге, свяжитесь с нами, и мы незамедлительно удалим ее. Файлы для обмена на трекере предоставлены пользователями сайта, и администрация не несет ответственности за их содержание. Просьба не заливать файлы, защищенные авторскими правами, а также файлы нелегального содержания!