[ Сегодня идет свободное скачивание без начисления Download ]


Статистика раздачи
Качаю: [ 1 ]
Скачал: [ 1 ]
 
   
 
Top  
 
 
Анна-детективъ (2016) WEBRip - Производство: Россия / Star Media
Жанр: Детектив
Режиссер: Феликс Герчиков, Евгений Семенов, Артур Румынский
Актеры: Александра Никифорова, Дмитрий Фрид, Сергей Друзьяк, Борис Хвошнянский, Ирина Сидорова, Андрей Рыклин, Андрей Лукьянов, Юрий Ильин, Марина Кангелари, Марина Маняхина и др.
Описание:
Российская империя, конец XIX века...
Юную девушку Анну Миронову, живущую в маленьком городке Затонск, все считают странной. Её не интересуют обычные девичьи забавы. Она ездит на заграничной диковинке — велосипеде и увлекается спиритизмом. Спиритизм меняет её жизнь полностью, постепенно приоткрывая Ане самые страшные тайны городка.Однажды Анна знакомится с губернским следователем Штольманом, убеждённым холостяком и материалистом. Он посмеивается над мистикой и доверяет только логике. К Анне он относится снисходительно, но со временем начинает всё больше к ней прислушиваться и очень скоро привлекает её к расследованию самых сложных и запутанных дел...

Возраст: 12+ (зрителям, достигшим 12 лет)
Дата российской премьеры: 7 ноября 2016
Продолжительность: ~ 00:48:00 серия
Качество видео: WEBRip
Видео: Xvid, 720x400 (16:9), ~1093 Kbps
Аудио: AC3, 2 ch, 192 Kbps, CBR

Информация по видеофайлу

Общее
Полное имя : D:\Мои фильмы\Anna_detektiv_1-56iz56_2016_XviD_WEBRip\01.Дело утопленниц.(1 сер.).avi
Формат : AVI
Формат/Информация : Audio Video Interleave
Размер файла : 445 Мбайт
Продолжительность : 48 м. 6 с.
Общий поток : 1295 Кбит/сек
Программа кодирования : VirtualDubMod 1.5.10.3 www.virtualdub-fr.org || (build 2550/release)
Библиотека кодирования : VirtualDub build 35491/release
Видео
Идентификатор : 0
Формат : MPEG-4 Visual
Профиль формата : Advanced Simple@L5
Параметр BVOP формата : 2
Параметр QPel формата : Нет
Параметр GMC формата : Без точки перехода
Параметр матрицы формата : Default (H.263)
Идентификатор кодека : XVID
Идентификатор кодека/Подсказка : XviD
Продолжительность : 48 м. 6 с.
Битрейт : 1093 Кбит/сек
Ширина : 720 пикселей
Высота : 400 пикселей
Соотношение сторон : 16:9
Частота кадров : 25,000 кадров/сек
Цветовое пространство : YUV
Субдискретизация насыщенности : 4:2:0
Битовая глубина : 8 бит
Тип развёртки : Прогрессивная
Метод сжатия : С потерями
Бит/(Пиксели*Кадры) : 0.152
Размер потока : 376 Мбайт (84%)
Библиотека кодирования : XviD 67
Аудио
Идентификатор : 1
Формат : AC-3
Формат/Информация : Audio Coding 3
Расширение режима : CM (complete main)
Параметр Endianness формата : Big
Идентификатор кодека : 2000
Продолжительность : 48 м. 6 с.
Вид битрейта : Постоянный
Битрейт : 192 Кбит/сек
Каналы : 2 канала
Расположение каналов : Front: L R
Частота : 48,0 КГц
Частота кадров : 31,250 кадров/сек (1536 spf)
Битовая глубина : 16 бит
Метод сжатия : С потерями
Размер потока : 66,1 Мбайт (15%)
Выравнивание : Соединение по промежуткам
Продолжительность промежутка : 40 мс. (1,00 видеокадр)
Время предзагрузки промежутка : 512 мс.
Скриншоты:

[Цитировать]



Показать сообщения:    

Текущее время: 21-Авг 12:47

Часовой пояс: UTC + 6


Вы не можете начинать темы
Вы не можете отвечать на сообщения
Вы не можете редактировать свои сообщения
Вы не можете удалять свои сообщения
Вы не можете голосовать в опросах
Вы не можете прикреплять файлы к сообщениям
Вы не можете скачивать файлы

!ВНИМАНИЕ!
Сайт не предоставляет электронные версии произведений, а занимается лишь коллекционированием и каталогизацией ссылок, присылаемых и публикуемых на форуме нашими читателями. Если вы являетесь правообладателем какого-либо представленного материала и не желаете, чтобы ссылка на него находилась в нашем каталоге, свяжитесь с нами, и мы незамедлительно удалим ее. Файлы для обмена на трекере предоставлены пользователями сайта, и администрация не несет ответственности за их содержание. Просьба не заливать файлы, защищенные авторскими правами, а также файлы нелегального содержания!