[ Сегодня идет свободное скачивание без начисления Download ]


Статистика раздачи
Нет
 
   
 
 
 
 
Мы купили зоопарк / We Bought a Zoo-- Год выпуска: 2011
Страна: США
Жанр: драма, комедия, семейный
Продолжительность: 02:03:54
Перевод: профессиональный (полное дублирование)
Оригинальная аудиодорожка: английский
Русские субтитры: есть
Навигация по главам: есть-Режиссер: Кэмерон Кроу / Cameron Crowe-В ролях:
Мэтт Дэймон (Benjamin Mee), Скарлетт Йоханссон (Kelly Foster), Томас Хейден Чёрч (Duncan Mee), Колин Форд (Dylan Mee), Мэгги Джонс (Rosie Mee), Энгус МакФадьен (Peter MacCready), Эль Фаннинг (Lily Miska), Патрик Фьюджит (Robin Jones), Джон Майкл Хиггинс (Walter Ferris), Карла Галло (Rhonda Blair), Дж.Б. Смув (Mr. Stevens), Стефани Зостак (Katherine Mee)-Описание:
Лента рассказывает о том, как британское семейство Ми потратило все сбережения, чтобы спасти заброшенный сельский зверинец с двумя сотнями экзотических животных, которым грозила гибель.-Доп. информация: Kinopoisk.ru | IMDB | Sample | MPAA: PG - Рекомендуется присутствие родителей-Качество | Исходник: BDRip-AVC
Контейнер: MKV
Видео кодек: H.264
Аудио кодек: AC3
Видео: H.264, 1200x650, 23.976 fps, ~ 4152 kbps, Bits/(Pixel*Frame):0.222, VBR
Аудио 1: Русский: 48 kHz, AC3, 3/2 (L,C,R,l,r) + LFE ch, ~ 448.00 kbps
Аудио 2: Английский: 48 kHz, AC3, 3/2 (L,C,R,l,r) + LFE ch, ~ 448.00 kbps
Формат субтитров: softsub (SRT) | русские (только надписи), русские (полные), английские (только надписи), английские (полные), украинские (полные) - все с BD CEE

Дополнительно о фильме

  • Основой для фильма послужили опубликованные в феврале 2009 года мемуары Бенджамина Ми под названием «We Bought a Zoo: The Amazing True Story of a Broken-Down Zoo, and the 200 Animals That Changed a Family Forever» («Мы купили зоопарк: Потрясающая подлинная история разбитого зоопарка и 200 животных, которые изменили семью навсегда»). Права на экранизацию его книги были практически сразу же куплены студией 20th Century Fox.
  • В августе 2006 года Бенджамин Ми со своей семьей приобрёл за 1,1 млн британских фунтов на тот момент закрытый Дартмурский зоопарк, который расположен в окрестностях деревушки Спарквелл, графство Девоншир, юго-западная Англия. После серьёзной реорганизации и перестройки зоопарк был снова открыт для публики 7 июля 2007 года.
  • По согласованию с самим Бенджамином Ми место нахождения зоопарка было перенесено из Англии в Калифорнию. Это было сделано ради большего успеха фильма у американской публики. Структура зоопарка и расположение основных секций в фильме были сохранены.
  • В реальной истории дети Бенджамина Ми были значительно младше, чем в фильме. На момент покупки зоопарка брату и сестре было соответственно 6 и 4 года.
  • В фильме в камео появляется вся семья Ми – отец Бенджамин и дети Майло и Элла. Это первая семья в очереди посетителей, когда герой Мэтта Дэймона перелезает через дерево. Среди публики в зоопарке также можно заметить детей режиссера Кэмерона Кроу, одиннадцатилетних на тот момент близнецов Уильяма Джеймса и Кёртиса Уилсона.
  • Обезьянка капуцин Кристал уже имела большой опыт «работы» в кино. Перед этим она «снималась» в таких фильмах как «Ночь в музее» (2006), «Мальчишник 2: Из Вегаса в Бангкок» (2011) и «Мой парень из зоопарка» (2011).
  • Помимо Скарлетт Йоханссон другими кандидатурами на роль Келли Фостер были Эми Адамс, Мэри Элизабет Уинстэд и Рэйчел МакАдамс.

Скриншоты

- -Rip vs Sourse -Rip vs Sourse

MediaInfo | x264

x264

x264 [info]: frame I:1686 Avg QP:16.78 size:130129x264 [info]: frame P:35665 Avg QP:20.72 size: 39428x264 [info]: frame B:140896 Avg QP:21.43 size: 15841x264 [info]: consecutive B-frames: 1.5% 1.2% 6.9% 15.5% 17.2% 47.0% 5.9% 1.6% 2.1% 1.2%x264 [info]: mb I I16..4: 8.1% 73.4% 18.5%x264 [info]: mb P I16..4: 1.3% 9.9% 1.5% P16..4: 43.7% 20.8% 15.2% 1.2% 0.3% skip: 6.2%x264 [info]: mb B I16..4: 0.1% 0.7% 0.1% B16..8: 40.0% 10.7% 3.3% direct: 8.3% skip:36.8% L0:42.6% L1:43.2% BI:14.1%x264 [info]: 8x8 transform intra:76.9% inter:58.4%x264 [info]: direct mvs spatial:98.3% temporal:1.7%x264 [info]: coded y,uvDC,uvAC intra: 88.4% 85.2% 66.7% inter: 30.8% 26.9% 10.7%x264 [info]: i16 v,h,dc,p: 33% 14% 15% 38%x264 [info]: i8 v,h,dc,ddl,ddr,vr,hd,vl,hu: 10% 8% 7% 10% 14% 14% 13% 12% 12%x264 [info]: i4 v,h,dc,ddl,ddr,vr,hd,vl,hu: 10% 7% 4% 9% 16% 15% 14% 12% 13%x264 [info]: i8c dc,h,v,p: 48% 19% 17% 17%x264 [info]: Weighted P-Frames: Y:2.0% UV:0.9%x264 [info]: ref P L0: 50.1% 8.5% 16.0% 7.5% 5.5% 4.2% 3.3% 2.0% 1.6% 1.3% 0.1% 0.0%x264 [info]: ref B L0: 73.3% 13.3% 5.4% 2.8% 1.9% 1.5% 1.1% 0.5% 0.2%x264 [info]: ref B L1: 93.4% 6.6%x264 [info]: kb/s:4151.01
GeneralUnique ID : 223438337060948660564029329638152471583 (0xA818A88D5C1160DCB7BA2ABE1848041F)Complete name : I:\We.Bought.A.Zoo.barm.mkvFormat : MatroskaFormat version : Version 2File size : 4.37 GiBDuration : 2h 3mnOverall bit rate : 5 050 KbpsMovie name : We Bought a Zoo 2011Encoded date : UTC 2012-05-01 16:14:34Writing application : mkvmerge v5.5.0 ('Healer') built on Apr 6 2012 21:43:24Writing library : libebml v1.2.3 + libmatroska v1.3.0Attachment : Yes
VideoID : 1Format : AVCFormat/Info : Advanced Video CodecFormat profile : High@L4.1Format settings, CABAC : YesFormat settings, ReFrames : 10 framesCodec ID : V_MPEG4/ISO/AVCDuration : 2h 3mnBit rate : 4 152 KbpsWidth : 1 200 pixelsHeight : 650 pixelsDisplay aspect ratio : 16:9Frame rate : 23.976 fpsColor space : YUVChroma subsampling : 4:2:0Bit depth : 8 bitsScan type : ProgressiveBits/(Pixel*Frame) : 0.222Stream size : 3.51 GiB (80%)Title : We Bought a ZooWriting library : x264 core 124 r2197 69a0443Encoding settings : cabac=1 / ref=10 / deblock=1:-2:-2 / analyse=0x3:0x133 / me=umh / subme=10 / psy=1 / psy_rd=1.05:0.05 / mixed_ref=1 / me_range=32 / chroma_me=1 / trellis=2 / 8x8dct=1 / cqm=0 / deadzone=21,11 / fast_pskip=0 / chroma_qp_offset=-3 / threads=6 / sliced_threads=0 / nr=0 / decimate=0 / interlaced=0 / bluray_compat=0 / constrained_intra=0 / bframes=9 / b_pyramid=2 / b_adapt=2 / b_bias=0 / direct=3 / weightb=1 / open_gop=0 / weightp=2 / keyint=250 / keyint_min=23 / scenecut=40 / intra_refresh=0 / rc_lookahead=60 / rc=2pass / mbtree=0 / bitrate=4152 / ratetol=1.0 / qcomp=0.65 / qpmin=0 / qpmax=69 / qpstep=4 / cplxblur=20.0 / qblur=0.5 / vbv_maxrate=50000 / vbv_bufsize=62500 / nal_hrd=none / ip_ratio=1.35 / pb_ratio=1.30 / aq=2:0.80 / zones=171600,178246,q=30Language : EnglishDefault : YesForced : NoMatrix coefficients : BT.709-5, BT.1361, IEC 61966-2-4 709, SMPTE RP177
Audio #1ID : 2Format : AC-3Format/Info : Audio Coding 3Mode extension : CM (complete main)Codec ID : A_AC3Duration : 2h 3mnBit rate mode : ConstantBit rate : 448 KbpsChannel(s) : 6 channelsChannel positions : Front: L C R, Side: L R, LFESampling rate : 48.0 KHzBit depth : 16 bitsCompression mode : LossyStream size : 397 MiB (9%)Title : Dubljaz, 48 kHz, AC3, 3/2 (L,C,R,l,r) + LFE ch, ~ 448.00 kbpsLanguage : RussianDefault : YesForced : No
Audio #2ID : 3Format : AC-3Format/Info : Audio Coding 3Mode extension : CM (complete main)Codec ID : A_AC3Duration : 2h 3mnBit rate mode : ConstantBit rate : 448 KbpsChannel(s) : 6 channelsChannel positions : Front: L C R, Side: L R, LFESampling rate : 48.0 KHzBit depth : 16 bitsCompression mode : LossyStream size : 397 MiB (9%)Title : Original, 48 kHz, AC3, 3/2 (L,C,R,l,r) + LFE ch, ~ 448.00 kbpsLanguage : EnglishDefault : NoForced : No
Text #1ID : 4Format : UTF-8Codec ID : S_TEXT/UTF8Codec ID/Info : UTF-8 Plain TextTitle : ForcedLanguage : RussianDefault : YesForced : No
Text #2ID : 5Format : UTF-8Codec ID : S_TEXT/UTF8Codec ID/Info : UTF-8 Plain TextLanguage : RussianDefault : NoForced : No
Text #3ID : 6Format : UTF-8Codec ID : S_TEXT/UTF8Codec ID/Info : UTF-8 Plain TextTitle : ForcedLanguage : EnglishDefault : NoForced : No
Text #4ID : 7Format : UTF-8Codec ID : S_TEXT/UTF8Codec ID/Info : UTF-8 Plain TextLanguage : EnglishDefault : NoForced : No
Text #5ID : 8Format : UTF-8Codec ID : S_TEXT/UTF8Codec ID/Info : UTF-8 Plain TextTitle : SDHLanguage : EnglishDefault : NoForced : No
Text #6ID : 9Format : UTF-8Codec ID : S_TEXT/UTF8Codec ID/Info : UTF-8 Plain TextLanguage : UkrainianDefault : NoForced : No
Menu00:00:00.000 : en:1. Pernicious00:04:35.149 : en:2. Joy00:08:08.237 : en:3. Strike Four00:11:03.496 : en:4. Their Happy Is Too Loud00:14:33.873 : en:5. All About "New"00:16:50.509 : en:6. It's A Zoo00:21:23.699 : en:7. We Bought A Zoo00:24:29.050 : en:8. Don't Be Shy00:26:37.429 : en:9. Sponsors Of Animal Greatness00:30:45.260 : en:10. Why Not?00:35:46.894 : en:11. No Sun In ThE Underworld00:40:48.696 : en:12. Butter00:44:19.948 : en:13. Chilean Miners00:47:20.087 : en:14. Whatever00:50:14.302 : en:15. Pop By00:56:31.888 : en:16. Utterly Free01:00:10.189 : en:17. Our Local Hero01:03:01.986 : en:18. Circus Money01:07:29.670 : en:19. Stay With Me01:11:31.287 : en:20. Living The Story01:15:40.410 : en:21. Desperate01:19:30.307 : en:22. Porch01:24:01.578 : en:23. Let's Shave01:26:47.911 : en:24. Twenty Seconds Of Courage01:30:31.426 : en:25. Happy Sad01:34:01.177 : en:26. I'm Your Fan01:37:34.306 : en:27. The Inspection01:44:03.028 : en:28. Sorry About The Rain01:48:26.249 : en:29. They Should Be Here01:52:46.384 : en:30. Opening Day01:55:57.700 : en:31. The Story Before The Story01:58:56.003 : en:32. Credits

[Цитировать]



Показать сообщения:    

Текущее время: 20-Сен 02:37

Часовой пояс: UTC + 6


Вы не можете начинать темы
Вы не можете отвечать на сообщения
Вы не можете редактировать свои сообщения
Вы не можете удалять свои сообщения
Вы не можете голосовать в опросах
Вы не можете прикреплять файлы к сообщениям
Вы не можете скачивать файлы

!ВНИМАНИЕ!
Сайт не предоставляет электронные версии произведений, а занимается лишь коллекционированием и каталогизацией ссылок, присылаемых и публикуемых на форуме нашими читателями. Если вы являетесь правообладателем какого-либо представленного материала и не желаете, чтобы ссылка на него находилась в нашем каталоге, свяжитесь с нами, и мы незамедлительно удалим ее. Файлы для обмена на трекере предоставлены пользователями сайта, и администрация не несет ответственности за их содержание. Просьба не заливать файлы, защищенные авторскими правами, а также файлы нелегального содержания!