[ Сегодня идет свободное скачивание без начисления Download ]


Статистика раздачи
Нет
 
   
 
Top  
 
 
Эндорфин / Endorphine (2015) WEB-DL 1080p- Производство: Канада
Жанр: Драма
Режиссер: Андре Тюрпен
Актеры: Софи Нелисс, Лизе Рой, Ги Товетт, Монья Шокри, Анна-Мари Кадьо, Теодор Пеллерен, Франсис Дюшарм
Описание:
Сложная, запутанная во времени и пространстве драма о жестоком бессмысленном убийстве и его юном свидетеле.

Возраст: этот продукт не был классифицирован
Рейтинг MPAA: этот продукт не был классифицирован
Продолжительность: 01:23:16
Качество видео: WEB-DL 1080р
Перевод: Многоголосый закадровый (AzOnFilm)
Язык субтитров: Французский
Вид субтитров: Вшитые
Видео: AVC/H.264, 1912х1026, ~4545 Kbps
Аудио: AC3, 6 ch, 384 kbps - Русский
Аудио: AC3, 6 ch, 384 kbps - Французский

Информация по видеофайлу

General
Unique ID : 246081901078685090746775645176295014386 (0xB921A673E5204B8BB7C28FA76F773FF2)
Complete name : E:\Endorphine(2015)WEB-DL.1080p.mkv
Format : Matroska
Format version : Version 2
File size : 3.15 GiB
Duration : 1h 23mn
Overall bit rate : 5 421 Kbps
Movie name : Endorphine (2015)
Encoded date : UTC 2016-12-29 04:41:47
Writing application : mkvmerge v9.7.1 ('Pandemonium') 64bit
Writing library : libebml v1.3.4 + libmatroska v1.4.5
DURATION : 01:23:17.024000000
NUMBER_OF_FRAMES : 156157
NUMBER_OF_BYTES : 239857152
_STATISTICS_WRITING_APP : mkvmerge v9.7.1 ('Pandemonium') 64bit
_STATISTICS_WRITING_DATE_UTC : 2016-12-29 04:41:47
_STATISTICS_TAGS : BPS DURATION NUMBER_OF_FRAMES NUMBER_OF_BYTES
Video
ID : 1
Format : AVC
Format/Info : Advanced Video Codec
Format profile : High@L4
Format settings, CABAC : Yes
Format settings, ReFrames : 4 frames
Codec ID : V_MPEG4/ISO/AVC
Duration : 1h 23mn
Bit rate : 4 545 Kbps
Width : 1 912 pixels
Height : 1 026 pixels
Display aspect ratio : 1.85:1
Frame rate mode : Constant
Frame rate : 23.976 fps
Color space : YUV
Chroma subsampling : 4:2:0
Bit depth : 8 bits
Scan type : Progressive
Bits/(Pixel*Frame) : 0.097
Stream size : 2.64 GiB (84%)
Language : English
Default : Yes
Forced : No
Color range : Limited
Color primaries : BT.709
Transfer characteristics : BT.709
Matrix coefficients : BT.709
Audio #1
ID : 2
Format : AC-3
Format/Info : Audio Coding 3
Mode extension : CM (complete main)
Format settings, Endianness : Big
Codec ID : A_AC3
Duration : 1h 23mn
Bit rate mode : Constant
Bit rate : 384 Kbps
Channel(s) : 6 channels
Channel positions : Front: L C R, Side: L R, LFE
Sampling rate : 48.0 KHz
Compression mode : Lossy
Stream size : 229 MiB (7%)
Title : Многоголосый, АzOnFilm
Language : Russian
Default : Yes
Forced : No
Audio #2
ID : 3
Format : AC-3
Format/Info : Audio Coding 3
Mode extension : CM (complete main)
Format settings, Endianness : Big
Codec ID : A_AC3
Duration : 1h 23mn
Bit rate mode : Constant
Bit rate : 384 Kbps
Channel(s) : 6 channels
Channel positions : Front: L C R, Side: L R, LFE
Sampling rate : 48.0 KHz
Compression mode : Lossy
Stream size : 229 MiB (7%)
Language : French
Default : No
Forced : No
Text
ID : 4
Format : UTF-8
Codec ID : S_TEXT/UTF8
Codec ID/Info : UTF-8 Plain Text
Title : FULL
Language : French
Default : No
Forced : No
Menu
00:00:00.000 : en:Chapitre 1
00:05:43.593 : en:Chapitre 2
00:12:24.327 : en:Chapitre 3
00:18:23.185 : en:Chapitre 4
00:24:03.400 : en:Chapitre 5
00:29:57.253 : en:Chapitre 6
00:36:15.923 : en:Chapitre 7
00:43:26.728 : en:Chapitre 8
00:49:58.578 : en:Chapitre 9
00:57:57.765 : en:Chapitre 10
01:04:23.066 : en:Chapitre 11
01:12:36.017 : en:Chapitre 12
01:19:34.352 : en:Chapitre 13
Скриншоты:

[Цитировать]



Показать сообщения:    

Текущее время: 21-Авг 12:47

Часовой пояс: UTC + 6


Вы не можете начинать темы
Вы не можете отвечать на сообщения
Вы не можете редактировать свои сообщения
Вы не можете удалять свои сообщения
Вы не можете голосовать в опросах
Вы не можете прикреплять файлы к сообщениям
Вы не можете скачивать файлы

!ВНИМАНИЕ!
Сайт не предоставляет электронные версии произведений, а занимается лишь коллекционированием и каталогизацией ссылок, присылаемых и публикуемых на форуме нашими читателями. Если вы являетесь правообладателем какого-либо представленного материала и не желаете, чтобы ссылка на него находилась в нашем каталоге, свяжитесь с нами, и мы незамедлительно удалим ее. Файлы для обмена на трекере предоставлены пользователями сайта, и администрация не несет ответственности за их содержание. Просьба не заливать файлы, защищенные авторскими правами, а также файлы нелегального содержания!