[ Сегодня идет свободное скачивание без начисления Download ]


Статистика раздачи
Нет
 
   
 
Top  
 
 
Начало / Inception-«Твой разум - место преступления.»- Год выпуска: 2010
Страна: США, Великобритания
Жанр: фантастика, боевик, триллер, драма, детектив
Продолжительность: 02:28:00
Перевод: профессиональный (полное дублирование) + профессиональная (двухголосая) - Студия "Кубик в кубе"
Оригинальная аудиодорожка: английский
Русские субтитры: есть
Навигация по главам: есть-Режиссер: Кристофер Нолан / Christopher Nolan-В ролях: Леонардо ДиКаприо, Джозеф Гордон-Левитт, Эллен Пейдж, Том Харди, Кен Ватанабе, Дилип Рао, Киллиан Мёрфи, Том Беренджер, Марион Котийяр, Пит Постлетуэйт-Описание:
Кобб — талантливый вор, лучший из лучших в опасном искусстве извлечения: он крадет ценные секреты из глубин подсознания во время сна, когда человеческий разум наиболее уязвим. Редкие способности Кобба сделали его ценным игроком в привычном к предательству мире промышленного шпионажа, но они же превратили его в извечного беглеца и лишили всего, что он когда-либо любил.
И вот у Кобба появляется шанс исправить ошибки. Его последнее дело может вернуть все назад, но для этого ему нужно совершить невозможное — инициацию. Вместо идеальной кражи Кобб и его команда спецов должны будут провернуть обратное. Теперь их задача — не украсть идею, а внедрить ее. Если у них получится, это и станет идеальным преступлением.
Но никакое планирование или мастерство не могут подготовить команду к встрече с опасным противником, который, кажется, предугадывает каждый их ход. Врагом, увидеть которого мог бы лишь Кобб.-Доп. информация: Kinopoisk.ru | IMDB | Sample |-Качество: BDRip-AVC
Формат: MKV
Видео кодек: H.264
Аудио кодек: AC3
Видео: H.264, 1280x532, 23.976 fps, ~ 2882 kbps
Аудио 1: Русский: 48 kHz, AC3, 3/2 (L,C,R,l,r) + LFE ch, ~ 448.00 kbps | Дубляж |
Аудио 2: Русский: 48 kHz, AC3, 3/2 (L,C,R,l,r) + LFE ch, ~ 448.00 kbps | Студия "Кубик в кубе"
Аудио 3: Английский: 48 kHz, AC3, 3/2 (L,C,R,l,r) + LFE ch, ~ 448.00 kbps
Формат субтитров: softsub (SRT) | русские (надписи с БД), русские (японский, надписи и пр.) (voronine), русские (полные с БД), русские (полные) (voronine), русские (полные SDH) (voronine), английские (SDH), английские

Дополнительно о фильме

  • Джеймс Франко начал вести переговоры с Кристофером Ноланом по поводу роли в фильме. Однако, из-за разногласий в расписании актера, он не смог присоединиться к актерской команде. Джозеф Гордон-Левитт в конечном счете получил роль, предназначенную Франко.
  • Съемки фильма начались 13 июля 2009 года.
  • Леонардо ДиКаприо был первым актером, который дал согласие на участие в проекте.
  • Персонажа Леонардо Ди Каприо зовут Дом Кобб. Коббом представился профессиональный вор в дебютном фильме Нолана — «Преследование».
  • Первоначальное название сценария — «Стрела Оливера».
  • Герои фильма выходят из состояния сна под песню Эдит Пиаф «Non, Je Ne Regrette Rien» (Нет, я ни о чём не жалею). Марион Котийяр в 2007 году исполняла роль Эдит Пиаф.
  • На роль Ариадны Нолан хотел пригласить звезду авторского кино Эван Рэйчел Вуд, но актриса заявила, что не заинтересована в сотрудничестве.
  • «Начало» стало первым фильмом Тома Беренджера со времен «Тренировочного дня», добравшимся до киноэкранов США.
  • В процессе переделки сценария, помимо прочего, изменились и имена главных героев. Так, персонаж Ди Каприо звался Джейкобом Хэстли, а героиню Эллен Пейдж звали Изабеллой.
  • Съемки фильма велись в 6 различных странах: США, Великобритания, Франция, Канада, Кения, Япония.
  • На роль Ариадны рассматривались Кира Найтли, Эмили Блант и Эмма Робертс.
  • Фонетически, «Кобб» означает «мечта» (khwab) на санскрите, хинди, урду и пенджаби. В фильме Кобб мечтал попасть обратно домой.

Скриншоты

Rip vs Sourse -

MediaInfo | x264

x264

x264 [info]: frame I:2009 Avg QP:16.06 size: 72799 PSNR Mean Y:48.30 U:52.81 V:52.92 Avg:49.26 Global:48.87x264 [info]: frame P:44599 Avg QP:18.84 size: 27993 PSNR Mean Y:47.72 U:53.68 V:53.76 Avg:48.72 Global:47.19x264 [info]: frame B:166489 Avg QP:20.86 size: 10854 PSNR Mean Y:45.60 U:52.04 V:52.19 Avg:46.72 Global:46.24x264 [info]: consecutive B-frames: 1.5% 2.3% 5.5% 21.0% 12.8% 41.0% 5.9% 5.9% 1.9% 2.2%x264 [info]: mb I I16..4: 11.1% 74.3% 14.6%x264 [info]: mb P I16..4: 1.5% 10.7% 1.6% P16..4: 37.4% 22.2% 13.1% 0.0% 0.0% skip:13.6%x264 [info]: mb B I16..4: 0.1% 1.1% 0.3% B16..8: 44.0% 10.9% 2.6% direct: 4.8% skip:36.3% L0:44.1% L1:45.8% BI:10.1%x264 [info]: 8x8 transform intra:76.6% inter:68.5%x264 [info]: direct mvs spatial:99.6% temporal:0.4%x264 [info]: coded y,uvDC,uvAC intra: 83.8% 70.9% 41.0% inter: 24.6% 12.9% 1.2%x264 [info]: i16 v,h,dc,p: 42% 14% 9% 36%x264 [info]: i8 v,h,dc,ddl,ddr,vr,hd,vl,hu: 15% 9% 5% 9% 14% 13% 13% 11% 12%x264 [info]: i4 v,h,dc,ddl,ddr,vr,hd,vl,hu: 25% 6% 4% 8% 13% 12% 12% 9% 10%x264 [info]: i8c dc,h,v,p: 35% 30% 21% 14%x264 [info]: Weighted P-Frames: Y:3.8% UV:1.3%x264 [info]: ref P L0: 51.4% 6.5% 16.8% 8.1% 5.8% 4.4% 3.4% 2.0% 1.6% 0.2% 0.0%x264 [info]: ref B L0: 73.5% 13.1% 6.1% 2.9% 2.0% 1.5% 0.8% 0.2%x264 [info]: ref B L1: 91.8% 8.2%
GeneralUniqueID : 228245940539497088905114852944063314095 (0xABB691B445AB224BBC8AE3CB34D138AF)Complete name : Inception.Dub.barm.mkvFormat : MatroskaFile size : 4.38 GiBDuration : 2h 28mnOverall bit rate : 4 229 KbpsMovie name : Inception_Nachalo_ 2010Encoded date : UTC 2010-12-03 21:23:59Writing application : mkvmerge v4.4.0 ('Die Wiederkehr') built on Oct 31 2010 21:52:48Writing library : libebml v1.0.0 + libmatroska v1.0.0Cover : Yes
VideoID : 1Format : AVCFormat/Info : Advanced Video CodecFormat profile : High@L4.1Format settings, CABAC : YesFormat settings, ReFrames : 9 framesCodec ID : V_MPEG4/ISO/AVCDuration : 2h 28mnBit rate : 2 882 KbpsWidth : 1 280 pixelsHeight : 532 pixelsDisplay aspect ratio : 2.40:1Frame rate : 23.976 fpsColor space : YUVChroma subsampling : 4:2:0Bit depth : 8 bitsScan type : ProgressiveBits/(Pixel*Frame) : 0.177Stream size : 2.90 GiB (66%)Title : Inception_Nachalo_ 2010Writing library : x264 core 108 r1790 8eaf8a6Encoding settings : cabac=1 / ref=9 / deblock=1:-3:-2 / analyse=0x3:0x113 / me=umh / subme=10 / psy=1 / psy_rd=1.00:0.02 / mixed_ref=1 / me_range=48 / chroma_me=1 / trellis=2 / 8x8dct=1 / cqm=0 / deadzone=21,11 / fast_pskip=1 / chroma_qp_offset=-3 / threads=6 / sliced_threads=0 / nr=0 / decimate=1 / interlaced=0 / constrained_intra=0 / bframes=9 / b_pyramid=2 / b_adapt=2 / b_bias=0 / direct=3 / weightb=1 / open_gop=0 / weightp=2 / keyint=250 / keyint_min=23 / scenecut=40 / intra_refresh=0 / rc_lookahead=120 / rc=2pass / mbtree=1 / bitrate=2882 / ratetol=1.0 / qcomp=0.70 / qpmin=10 / qpmax=51 / qpstep=4 / cplxblur=20.0 / qblur=0.5 / vbv_maxrate=50000 / vbv_bufsize=62500 / ip_ratio=1.40 / aq=2:0.95 / zones=202686,213096,q=30 / nal_hrd=noneLanguage : EnglishMatrix coefficients : BT.709-5, BT.1361, IEC 61966-2-4 709, SMPTE RP177
Audio #1ID : 2Format : AC-3Format/Info : Audio Coding 3Mode extension : CM (complete main)Codec ID : A_AC3Duration : 2h 28mnBit rate mode : ConstantBit rate : 448 KbpsChannel(s) : 6 channelsChannel positions : Front: L C R, Side: L R, LFESampling rate : 48.0 KHzBit depth : 16 bitsCompression mode : LossyStream size : 475 MiB (11%)Title : Dubljaz, 48 kHz, AC3, 3/2 (L,C,R,l,r) + LFE ch, ~ 448.00 kbpsLanguage : Russian
Audio #2ID : 3Format : AC-3Format/Info : Audio Coding 3Mode extension : CM (complete main)Codec ID : A_AC3Duration : 2h 28mnBit rate mode : ConstantBit rate : 448 KbpsChannel(s) : 6 channelsChannel positions : Front: L C R, Side: L R, LFESampling rate : 48.0 KHzBit depth : 16 bitsCompression mode : LossyStream size : 475 MiB (11%)Title : DVO Kubik v kube, 48 kHz, AC3, 3/2 (L,C,R,l,r) + LFE ch, ~ 448.00 kbpsLanguage : Russian
Audio #3ID : 4Format : AC-3Format/Info : Audio Coding 3Mode extension : CM (complete main)Codec ID : A_AC3Duration : 2h 28mnBit rate mode : ConstantBit rate : 448 KbpsChannel(s) : 6 channelsChannel positions : Front: L C R, Side: L R, LFESampling rate : 48.0 KHzBit depth : 16 bitsCompression mode : LossyStream size : 475 MiB (11%)Title : Original, 48 kHz, AC3, 3/2 (L,C,R,l,r) + LFE ch, ~ 448.00 kbpsLanguage : English
Text #1ID : 5Format : UTF-8Codec ID : S_TEXT/UTF8Codec ID/Info : UTF-8 Plain TextTitle : Forced CEELanguage : Russian
Text #2ID : 6Format : UTF-8Codec ID : S_TEXT/UTF8Codec ID/Info : UTF-8 Plain TextTitle : Forced VoronineLanguage : Russian
Text #3ID : 7Format : UTF-8Codec ID : S_TEXT/UTF8Codec ID/Info : UTF-8 Plain TextTitle : Full CEELanguage : Russian
Text #4ID : 8Format : UTF-8Codec ID : S_TEXT/UTF8Codec ID/Info : UTF-8 Plain TextTitle : Full.VoronineLanguage : Russian
Text #5ID : 9Format : UTF-8Codec ID : S_TEXT/UTF8Codec ID/Info : UTF-8 Plain TextTitle : Full.SDH.VoronineLanguage : Russian
Text #6ID : 10Format : UTF-8Codec ID : S_TEXT/UTF8Codec ID/Info : UTF-8 Plain TextTitle : EnglishLanguage : English
Text #7ID : 11Format : UTF-8Codec ID : S_TEXT/UTF8Codec ID/Info : UTF-8 Plain TextTitle : English SDHLanguage : English
Menu00:00:00.000 : en:Chapter 100:11:41.742 : en:Chapter 200:21:37.337 : en:Chapter 300:31:20.335 : en:Chapter 400:41:22.228 : en:Chapter 500:51:13.737 : en:Chapter 601:01:21.552 : en:Chapter 701:10:29.683 : en:Chapter 801:22:15.597 : en:Chapter 901:31:52.590 : en:Chapter 1001:40:38.532 : en:Chapter 1101:51:22.175 : en:Chapter 1202:00:54.413 : en:Chapter 1302:10:09.051 : en:Chapter 1402:20:55.446 : en:Chapter 15

[Цитировать]



Показать сообщения:    

Текущее время: 19-Авг 19:15

Часовой пояс: UTC + 6


Вы не можете начинать темы
Вы не можете отвечать на сообщения
Вы не можете редактировать свои сообщения
Вы не можете удалять свои сообщения
Вы не можете голосовать в опросах
Вы не можете прикреплять файлы к сообщениям
Вы не можете скачивать файлы

!ВНИМАНИЕ!
Сайт не предоставляет электронные версии произведений, а занимается лишь коллекционированием и каталогизацией ссылок, присылаемых и публикуемых на форуме нашими читателями. Если вы являетесь правообладателем какого-либо представленного материала и не желаете, чтобы ссылка на него находилась в нашем каталоге, свяжитесь с нами, и мы незамедлительно удалим ее. Файлы для обмена на трекере предоставлены пользователями сайта, и администрация не несет ответственности за их содержание. Просьба не заливать файлы, защищенные авторскими правами, а также файлы нелегального содержания!