[ Сегодня идет свободное скачивание без начисления Download ]


Статистика раздачи
Качаю: [ 1 ]
Скачал: [ 10 ]
 
   
 
 
 
 
Большой собачий побег / Ozzy (2016) Название: Большой собачий побег
Оригинальное название: Ozzy
Год выпуска: 2016
Жанр: Мультфильм
Выпущено: Канада, Испания, Arcadia Motion Pictures, Capitan Arana, Pasacana Films, Tangent Animation
Режиссер: Альберто Родригез, Начо Ла Каза
В ролях: Гильермо Ромеро, Дэни Ровира, Хосе Мота, Мишель Хеннер, Карлос Аресес, Фернандо Техеро, Эктор Кантолья, Хуан Фернандес, Эльза Патаки
О фильме: Жизнь беспечного бигля Оззи переворачивается с лап на голову, когда, отправляясь в отпуск, семья Мартинов отдает его в элитный спа-отель для собак. Но хозяева не могли и представить, что это всего лишь ловушка, а их любимец окажется в настоящей собачьей тюрьме. Чтобы прорваться через супер-систему охраны и злющих сторожевых псов, Оззи вместе с такими же бедолагами, как он, должен будет спланировать самый хитроумный и дерзкий побег в истории.
Страна: Канада, Испания
Студия: Arcadia Motion Pictures, Capitan Arana, Pasacana Films, Tangent Animation
Продолжительность: 01:30:44
Перевод: Дублированный | BD RUS
Качество: BDRip (720p)
Видео: MPEG-4 AVC, 3250 Кбит/с, 1280x720
Аудио: Русский (АС3, 6 ch, 640 Кбит/с), (DTS, 6 ch, 1509 Кбит/с), украинский (АС3, 6 ch, 384 Кбит/с)

MI

General
Unique ID : 206272111615874518418521069231541971247 (0x9B2E904B0EF1944F8524BD171C79E92F)
Complete name : D:Ozzy.2016.D.BDRip.720p.ExKinoRay.mkv
Format : Matroska
Format version : Version 2
File size : 3.67 GiB
Duration : 1 h 30 min
Overall bit rate : 5 784 kb/s
Movie name : Оззи (2016) from ExKinoRay
Encoded date : UTC 2017-01-16 03:32:00
Writing application : mkvmerge v7.6.0 ('Garden of Dreams') 32bit built on Feb 11 2015 00:18:47
Writing library : libebml v1.3.1 + libmatroska v1.4.2
Video
ID : 1
Format : AVC
Format/Info : Advanced Video Codec
Format profile : High@L4.1
Format settings, CABAC : Yes
Format settings, ReFrames : 9 frames
Codec ID : V_MPEG4/ISO/AVC
Duration : 1 h 30 min
Bit rate : 3 250 kb/s
Width : 1 280 pixels
Height : 720 pixels
Display aspect ratio : 16:9
Frame rate mode : Constant
Frame rate : 24.000 FPS
Color space : YUV
Chroma subsampling : 4:2:0
Bit depth : 8 bits
Scan type : Progressive
Bits/(Pixel*Frame) : 0.147
Stream size : 1.99 GiB (54%)
Title : Enigma
Writing library : x264 core 144 r2525 40bb568
Encoding settings : cabac=1 / ref=9 / deblock=1:-2:-2 / analyse=0x3:0x113 / me=umh / subme=10 / psy=1 / psy_rd=1.00:0.05 / mixed_ref=1 / me_range=32 / chroma_me=1 / trellis=2 / 8x8dct=1 / cqm=0 / deadzone=21,11 / fast_pskip=1 / chroma_qp_offset=-3 / threads=12 / lookahead_threads=2 / sliced_threads=0 / nr=0 / decimate=1 / interlaced=0 / bluray_compat=0 / constrained_intra=0 / bframes=9 / b_pyramid=2 / b_adapt=2 / b_bias=0 / direct=3 / weightb=1 / open_gop=0 / weightp=2 / keyint=240 / keyint_min=24 / scenecut=40 / intra_refresh=0 / rc_lookahead=40 / rc=2pass / mbtree=0 / bitrate=3250 / ratetol=1.0 / qcomp=0.60 / qpmin=0 / qpmax=51 / qpstep=4 / cplxblur=20.0 / qblur=0.5 / vbv_maxrate=50000 / vbv_bufsize=62500 / nal_hrd=none / filler=0 / ip_ratio=1.40 / pb_ratio=1.30 / aq=1:1.00
Language : English
Default : Yes
Forced : No
Color range : Limited
Color primaries : BT.709
Transfer characteristics : BT.709
Matrix coefficients : BT.709
Audio #1
ID : 2
Format : AC-3
Format/Info : Audio Coding 3
Mode extension : CM (complete main)
Format settings, Endianness : Big
Codec ID : A_AC3
Duration : 1 h 30 min
Bit rate mode : Constant
Bit rate : 640 kb/s
Channel(s) : 6 channels
Channel positions : Front: L C R, Side: L R, LFE
Sampling rate : 48.0 kHz
Frame rate : 31.250 FPS (1536 spf)
Compression mode : Lossy
Stream size : 415 MiB (11%)
Title : Лицензия
Language : Russian
Default : Yes
Forced : No
Audio #2
ID : 3
Format : DTS
Format/Info : Digital Theater Systems
Mode : 16
Format settings, Endianness : Big
Codec ID : A_DTS
Duration : 1 h 30 min
Bit rate mode : Constant
Bit rate : 1 509 kb/s
Channel(s) : 6 channels
Channel positions : Front: L C R, Side: L R, LFE
Sampling rate : 48.0 kHz
Frame rate : 93.750 FPS (512 spf)
Bit depth : 24 bits
Compression mode : Lossy
Stream size : 979 MiB (26%)
Title : Лицензия
Language : Russian
Default : No
Forced : No
Audio #3
ID : 4
Format : AC-3
Format/Info : Audio Coding 3
Mode extension : CM (complete main)
Format settings, Endianness : Big
Codec ID : A_AC3
Duration : 1 h 30 min
Bit rate mode : Constant
Bit rate : 384 kb/s
Channel(s) : 6 channels
Channel positions : Front: L C R, Side: L R, LFE
Sampling rate : 48.0 kHz
Frame rate : 31.250 FPS (1536 spf)
Compression mode : Lossy
Stream size : 249 MiB (7%)
Title : iTunes
Language : Ukrainian
Default : No
Forced : No
Menu
00:00:00.000 : :Chapter 01
00:00:40.666 : :Chapter 02
00:09:41.125 : :Chapter 03
00:22:08.000 : :Chapter 04
00:32:50.458 : :Chapter 05
00:44:08.541 : :Chapter 06
00:58:01.791 : :Chapter 07
01:08:12.000 : :Chapter 08
01:19:27.041 : :Chapter 09

[Цитировать]



Показать сообщения:    

Текущее время: 20-Сен 22:40

Часовой пояс: UTC + 6


Вы не можете начинать темы
Вы не можете отвечать на сообщения
Вы не можете редактировать свои сообщения
Вы не можете удалять свои сообщения
Вы не можете голосовать в опросах
Вы не можете прикреплять файлы к сообщениям
Вы не можете скачивать файлы

!ВНИМАНИЕ!
Сайт не предоставляет электронные версии произведений, а занимается лишь коллекционированием и каталогизацией ссылок, присылаемых и публикуемых на форуме нашими читателями. Если вы являетесь правообладателем какого-либо представленного материала и не желаете, чтобы ссылка на него находилась в нашем каталоге, свяжитесь с нами, и мы незамедлительно удалим ее. Файлы для обмена на трекере предоставлены пользователями сайта, и администрация не несет ответственности за их содержание. Просьба не заливать файлы, защищенные авторскими правами, а также файлы нелегального содержания!