[ Сегодня идет свободное скачивание без начисления Download ]


Статистика раздачи
Скачал: [ 4 ]
 
   
 
 
 
 
Стрела / Arrow Год выпуска: 2016-2017
Страна: США
Жанр: Фантастика, драма, детектив, боевик, приключения, комикс
Продолжительность: ~ 00:43:00 одна серия
Перевод: Профессиональный (многоголосый, закадровый) NewStudio-Режиссер: Дэвид Баррет, Дэвид Наттер-В ролях: Стивен Амелл, Кэти Кэссиди, Колин Доннелл, Дэвид Рэмси, Уилла Холлэнд, Сюзанна Томпсон, Пол Блекторн, Колин Сэлмон, Эмили Бетт Рикардс, Энни Айлонзех, Себастьян Данн, Байрон Манн, Роджер Р. Кросс, Мэррет Грин, Ли Винсент, Джон Барроумен, Лесли Ивен-Описание: Избалованный плейбой Оливер Квин, считавшийся погибшим в кораблекрушении вместе с отцом и девушкой, на самом деле пять лет выживал на затерянном острове в Тихом океане, где пересмотрел свой взгляд на жизнь. За это время мир сильно изменился: его мать вышла замуж за нового владельца империи Квинов, младшая сестра подсела на наркотики, а бывшая девушка стала встречаться с лучшим другом Томми Мерлином. Вернувшись к цивилизации, Оливер решил избавить родной город от преступности, создав неуловимого лучника Стрелу.- -Качество: WEB-DLRip
Формат: AVI
Видео: 720x400 (1.80:1), 23.976 fps, XviD build 50 ~1400 kbps avg, 0.20 bit/pixel
Аудио Rus: 48 kHz, MPEG Layer 3, 2 ch, ~128 kbps avg
Аудио Eng: 48 kHz, MPEG Layer 3, 2 ch, ~128 kbps avg
Субтитры: нет

Media Info

Общее
Полное имя                               : D:\Релизы torrents-club.org\Arrow.s05\Arrow.s05e04.WEBDLRip.NewStudio.TV.avi
Формат                                   : AVI
Формат/Информация                        : Audio Video Interleave
Размер файла                             : 550 Мбайт
Продолжительность                        : 42 м.
Общий поток                              : 1801 Кбит/сек
Программа кодирования                    : VirtualDubMod 1.5.10.2 (build 2540/release)
Библиотека кодирования                   : VirtualDubMod build 2540/release
Видео
Идентификатор                            : 0
Формат                                   : MPEG-4 Visual
Профиль формата                          : Advanced Simple@L5
Параметр BVOP формата                    : 2
Параметр QPel формата                    : Да
Параметр GMC формата                     : Без точки перехода
Параметр матрицы формата                 : Default (MPEG)
Режим смешивания                         : Сжатый битовый поток
Идентификатор кодека                     : XVID
Идентификатор кодека/Подсказка           : XviD
Продолжительность                        : 42 м.
Битрейт                                  : 1531 Кбит/сек
Ширина                                   : 720 пикселей
Высота                                   : 400 пикселей
Соотношение сторон                       : 16:9
Частота кадров                           : 23,976 (23976/1000) кадра/сек
Цветовое пространство                    : YUV
Субдискретизация насыщенности            : 4:2:0
Битовая глубина                          : 8 бит
Тип развёртки                            : Прогрессивная
Метод сжатия                             : С потерями
Бит/(Пиксели*Кадры)                      : 0.222
Размер потока                            : 468 Мбайт (85%)
Библиотека кодирования                   : XviD 73
Аудио #1
Идентификатор                            : 1
Формат                                   : MPEG Audio
Версия формата                           : Version 1
Профиль формата                          : Layer 3
Режим                                    : Joint stereo
Расширение режима                        : MS Stereo
Идентификатор кодека                     : 55
Идентификатор кодека/Подсказка           : MP3
Продолжительность                        : 42 м.
Вид битрейта                             : Постоянный
Битрейт                                  : 128 Кбит/сек
Каналы                                   : 2 канала
Частота                                  : 48,0 КГц
Метод сжатия                             : С потерями
Размер потока                            : 39,1 Мбайт (7%)
Выравнивание                             : Соединение по промежуткам
Продолжительность промежутка             : 42  мс. (1,00 видеокадр)
Время предзагрузки промежутка            : 504  мс.
Аудио #2
Идентификатор                            : 2
Формат                                   : MPEG Audio
Версия формата                           : Version 1
Профиль формата                          : Layer 3
Режим                                    : Joint stereo
Идентификатор кодека                     : 55
Идентификатор кодека/Подсказка           : MP3
Продолжительность                        : 42 м.
Вид битрейта                             : Постоянный
Битрейт                                  : 128 Кбит/сек
Каналы                                   : 2 канала
Частота                                  : 48,0 КГц
Метод сжатия                             : С потерями
Размер потока                            : 39,1 Мбайт (7%)
Выравнивание                             : Соединение по промежуткам
Продолжительность промежутка             : 42  мс. (1,00 видеокадр)
Время предзагрузки промежутка            : 504  мс.
Библиотека кодирования                   : LAME3.99r
Настройки программы                      : -m j -V 4 -q 2 -lowpass 17 -b 128

Скриншоты





Внимание! Раздача ведётся путём добавления новых серий.


Внимание! Раздача ведётся путём добавления новых серий; при каждом добавлении создётся новый торрент. Чтобы начать докачку новой серии, пользователям необходимо сделать следующее:
Остановить скачивание.
Удалить старый торрент у себя из клиента (старые серии удалять не надо).
Скачать новый торрент и запустить его у себя в клиенте вместо старого, при этом указать клиенту путь в старую папку куда и должно происходить скачивание новых серий.
Ваш клиент при этом должен произвести хеширование (проверку) старой папки (если не производит сам - помогите ему сделать это), и будет докачивать только те серии которых у вас ещё нет. Старые серии при этом не удаляются, а продолжают раздаваться!
Eсли вы уже удалили старые серии, то предотвратить повторную закачку старых серий можно, отжав галочку в соответсвующих местах при запуске нового торрента. По возможности, желательно не удалять старые серии как можно дольше чтобы релизёр не столько продолжал раздавать старые серии, а смог сконцентрироваться на новых.
Добавлена 20-23 серия. Полный сезон.


Последний раз редактировалось: Dimasik79 (2017-05-27 17:12), всего редактировалось 7 раз(а)

[Цитировать]

Добавлена 20-23 серия. Полный сезон.

[Цитировать]



Показать сообщения:    

Текущее время: 14-Дек 19:13

Часовой пояс: UTC + 6


Вы не можете начинать темы
Вы не можете отвечать на сообщения
Вы не можете редактировать свои сообщения
Вы не можете удалять свои сообщения
Вы не можете голосовать в опросах
Вы не можете прикреплять файлы к сообщениям
Вы не можете скачивать файлы

!ВНИМАНИЕ!
Сайт не предоставляет электронные версии произведений, а занимается лишь коллекционированием и каталогизацией ссылок, присылаемых и публикуемых на форуме нашими читателями. Если вы являетесь правообладателем какого-либо представленного материала и не желаете, чтобы ссылка на него находилась в нашем каталоге, свяжитесь с нами, и мы незамедлительно удалим ее. Файлы для обмена на трекере предоставлены пользователями сайта, и администрация не несет ответственности за их содержание. Просьба не заливать файлы, защищенные авторскими правами, а также файлы нелегального содержания!