[ Сегодня идет свободное скачивание без начисления Download ]


Статистика раздачи
Нет
 
   
 
 
 
 
Jon Schmidt & Steven Sharp Nelson - The Piano Guys: Hits Volume I: Limited Founders Edition

Жанр: Piano, Cello, Instrumental
Format: CD, Album
Country: US
Дата релиза: 2012
Битрейт: lossless
Аудио кодек: FLAC
Типа рипа: tracks+.cue
Наличие сканов в раздаче: Да (600dpi, *.png)
Продолжительность: 45:49
Трэклист:
01. Jon Schmidt & Steven Sharp Nelson - Michael Meets Mozart (5:19)
02. Jon Schmidt & Steven Sharp Nelson - Moonlight (3:29)
03. Jon Schmidt & Steven Sharp Nelson - Without You (3:39)
04. Jon Schmidt & Steven Sharp Nelson - The Cello Song (3:19)
05. Jon Schmidt & Steven Sharp Nelson - Rolling In The Deep (3:54)
06. Jon Schmidt & Steven Sharp Nelson - Cello Wars (Radio Edit) (3:11)
07. Jon Schmidt & Steven Sharp Nelson - O Fortuna (From Carmina Burana) (3:22)
08. Jon Schmidt & Steven Sharp Nelson - Bring Him Home (From Les Miserables) (4:18)
09. Jon Schmidt & Steven Sharp Nelson - Charlie Brown Melody (3:03)
10. Jon Schmidt & Steven Sharp Nelson - Rock Meets Rachmaninoff (3:22)
11. Jon Schmidt & Steven Sharp Nelson - All Of Me (3:05)
12. Jon Schmidt & Steven Sharp Nelson - More Than Words (Instrumental) (3:58)
13. Jon Schmidt & Steven Sharp Nelson - Twinkle Lullaby (1:51)

Лог EAC

Exact Audio Copy V1.0 beta 3 from 29. August 2011
EAC extraction logfile from 10. February 2012, 22:17
Jon Schmidt & Steven Sharp Nelson / The Piano Guys: Hits Volume I: Limited Founders Edition
Used drive : TSSTcorpCDDVDW SH-S223C Adapter: 1 ID: 4
Read mode : Secure
Utilize accurate stream : Yes
Defeat audio cache : Yes
Make use of C2 pointers : No
Read offset correction : 697
Overread into Lead-In and Lead-Out : No
Fill up missing offset samples with silence : Yes
Delete leading and trailing silent blocks : No
Null samples used in CRC calculations : Yes
Used interface : Native Win32 interface for Win NT & 2000
Gap handling : Appended to previous track
Used output format : User Defined Encoder
Selected bitrate : 896 kBit/s
Quality : High
Add ID3 tag : No
Command line compressor : C:\Program Files\Exact Audio Copy\Flac\flac.exe
Additional command line options : -8 -V -T "ARTIST=%artist%" -T "TITLE=%title%" -T "ALBUM=%albumtitle%" -T "DATE=%year%" -T "TRACKNUMBER=%tracknr%" -T "GENRE=%genre%" -T "COMMENT=ripped by DrStandBy" %source%
TOC of the extracted CD
Track | Start | Length | Start sector | End sector
---------------------------------------------------------
1 | 0:00.00 | 5:18.39 | 0 | 23888
2 | 5:18.39 | 3:28.49 | 23889 | 39537
3 | 8:47.13 | 3:39.04 | 39538 | 55966
4 | 12:26.17 | 3:18.43 | 55967 | 70859
5 | 15:44.60 | 3:54.25 | 70860 | 88434
6 | 19:39.10 | 3:11.21 | 88435 | 102780
7 | 22:50.31 | 3:22.11 | 102781 | 117941
8 | 26:12.42 | 4:17.59 | 117942 | 137275
9 | 30:30.26 | 3:03.08 | 137276 | 151008
10 | 33:33.34 | 3:21.49 | 151009 | 166132
11 | 36:55.08 | 3:04.57 | 166133 | 179989
12 | 39:59.65 | 3:58.14 | 179990 | 197853
13 | 43:58.04 | 1:51.16 | 197854 | 206194
Track 1
Filename E:\Jon Schmidt & Steven Sharp Nelson\2012 - Jon Schmidt & Steven Sharp Nelson - The PianoGuys Hits Volume I\1-01. Jon Schmidt & Steven Sharp Nelson - Michael Meets Mozart.wav
Pre-gap length 0:00:02.00
Peak level 99.7 %
Extraction speed 2.0 X
Track quality 100.0 %
Test CRC E291389B
Copy CRC E291389B
Accurately ripped (confidence 1) [AF92CC71] (AR v1)
Copy OK
Track 2
Filename E:\Jon Schmidt & Steven Sharp Nelson\2012 - Jon Schmidt & Steven Sharp Nelson - The PianoGuys Hits Volume I\1-02. Jon Schmidt & Steven Sharp Nelson - Moonlight.wav
Peak level 97.2 %
Extraction speed 2.2 X
Track quality 100.0 %
Test CRC 6CF88864
Copy CRC 6CF88864
Accurately ripped (confidence 1) [2E66E603] (AR v1)
Copy OK
Track 3
Filename E:\Jon Schmidt & Steven Sharp Nelson\2012 - Jon Schmidt & Steven Sharp Nelson - The PianoGuys Hits Volume I\1-03. Jon Schmidt & Steven Sharp Nelson - Without You.wav
Pre-gap length 7:40:14.54
Peak level 97.2 %
Extraction speed 2.4 X
Track quality 100.0 %
Test CRC 8DC6CD5F
Copy CRC 8DC6CD5F
Accurately ripped (confidence 1) [4EA1F1F7] (AR v1)
Copy OK
Track 4
Filename E:\Jon Schmidt & Steven Sharp Nelson\2012 - Jon Schmidt & Steven Sharp Nelson - The PianoGuys Hits Volume I\1-04. Jon Schmidt & Steven Sharp Nelson - The Cello Song.wav
Pre-gap length 7:12:27.36
Peak level 97.2 %
Extraction speed 2.5 X
Track quality 100.0 %
Test CRC 933384F0
Copy CRC 933384F0
Accurately ripped (confidence 1) [B355549A] (AR v1)
Copy OK
Track 5
Filename E:\Jon Schmidt & Steven Sharp Nelson\2012 - Jon Schmidt & Steven Sharp Nelson - The PianoGuys Hits Volume I\1-05. Jon Schmidt & Steven Sharp Nelson - Rolling In The Deep.wav
Pre-gap length 9:30:39.69
Peak level 97.2 %
Extraction speed 2.7 X
Track quality 100.0 %
Test CRC BE18B233
Copy CRC BE18B233
Accurately ripped (confidence 1) [1D64860D] (AR v1)
Copy OK
Track 6
Filename E:\Jon Schmidt & Steven Sharp Nelson\2012 - Jon Schmidt & Steven Sharp Nelson - The PianoGuys Hits Volume I\1-06. Jon Schmidt & Steven Sharp Nelson - Cello Wars (Radio Edit).wav
Peak level 97.2 %
Extraction speed 2.7 X
Track quality 100.0 %
Test CRC 7CC12576
Copy CRC 7CC12576
Accurately ripped (confidence 1) [FF0D0AFA] (AR v1)
Copy OK
Track 7
Filename E:\Jon Schmidt & Steven Sharp Nelson\2012 - Jon Schmidt & Steven Sharp Nelson - The PianoGuys Hits Volume I\1-07. Jon Schmidt & Steven Sharp Nelson - O Fortuna (From Carmina Burana).wav
Pre-gap length 3:04:56.35
Peak level 97.2 %
Extraction speed 2.2 X
Track quality 99.9 %
Test CRC AB6D20F4
Copy CRC AB6D20F4
Accurately ripped (confidence 1) [C3BAD0A4] (AR v1)
Copy OK
Track 8
Filename E:\Jon Schmidt & Steven Sharp Nelson\2012 - Jon Schmidt & Steven Sharp Nelson - The PianoGuys Hits Volume I\1-08. Jon Schmidt & Steven Sharp Nelson - Bring Him Home (From Les Miserables).wav
Pre-gap length 7:27:37.01
Peak level 97.2 %
Extraction speed 3.1 X
Track quality 100.0 %
Test CRC B5B15989
Copy CRC B5B15989
Accurately ripped (confidence 1) [4CE2CDA9] (AR v1)
Copy OK
Track 9
Filename E:\Jon Schmidt & Steven Sharp Nelson\2012 - Jon Schmidt & Steven Sharp Nelson - The PianoGuys Hits Volume I\1-09. Jon Schmidt & Steven Sharp Nelson - Charlie Brown Melody.wav
Peak level 97.2 %
Extraction speed 3.1 X
Track quality 100.0 %
Test CRC 97624351
Copy CRC 97624351
Accurately ripped (confidence 1) [B3516B33] (AR v1)
Copy OK
Track 10
Filename E:\Jon Schmidt & Steven Sharp Nelson\2012 - Jon Schmidt & Steven Sharp Nelson - The PianoGuys Hits Volume I\1-10. Jon Schmidt & Steven Sharp Nelson - Rock Meets Rachmaninoff.wav
Peak level 99.7 %
Extraction speed 3.2 X
Track quality 100.0 %
Test CRC 32D86CA5
Copy CRC 32D86CA5
Accurately ripped (confidence 1) [66964BAC] (AR v1)
Copy OK
Track 11
Filename E:\Jon Schmidt & Steven Sharp Nelson\2012 - Jon Schmidt & Steven Sharp Nelson - The PianoGuys Hits Volume I\1-11. Jon Schmidt & Steven Sharp Nelson - All Of Me.wav
Pre-gap length 0:58:01.48
Peak level 97.8 %
Extraction speed 3.3 X
Track quality 100.0 %
Test CRC 57F5F069
Copy CRC 57F5F069
Accurately ripped (confidence 1) [FD43E555] (AR v1)
Copy OK
Track 12
Filename E:\Jon Schmidt & Steven Sharp Nelson\2012 - Jon Schmidt & Steven Sharp Nelson - The PianoGuys Hits Volume I\1-12. Jon Schmidt & Steven Sharp Nelson - More Than Words (Instrumental).wav
Pre-gap length 9:52:32.68
Peak level 94.5 %
Extraction speed 3.5 X
Track quality 100.0 %
Test CRC 8350FE89
Copy CRC 8350FE89
Accurately ripped (confidence 1) [FFEF30D2] (AR v1)
Copy OK
Track 13
Filename E:\Jon Schmidt & Steven Sharp Nelson\2012 - Jon Schmidt & Steven Sharp Nelson - The PianoGuys Hits Volume I\1-13. Jon Schmidt & Steven Sharp Nelson - Twinkle Lullaby.wav
Peak level 94.4 %
Extraction speed 1.9 X
Track quality 99.9 %
Test CRC 0BF2E1BA
Copy CRC 0BF2E1BA
Accurately ripped (confidence 1) [30285C20] (AR v1)
Copy OK
All tracks accurately ripped
No errors occurred
End of status report
---- CUETools DB Plugin V2.1.3
[CTDB TOCID: cUqYmOV5qnUUo4refb5iEQCremU-] found, Submit result: cUqYmOV5qnUUo4refb5iEQCremU- has been confirmed
[4f4b9ab6] (1/1) Accurately ripped
==== Log checksum 2E6006F2409A47630B39F2D3165CA4AE4C4A45A160F226EF6607780D8C2155BC =

[Цитировать]



Показать сообщения:    

Текущее время: 28-Май 05:26

Часовой пояс: UTC + 6


Вы не можете начинать темы
Вы не можете отвечать на сообщения
Вы не можете редактировать свои сообщения
Вы не можете удалять свои сообщения
Вы не можете голосовать в опросах
Вы не можете прикреплять файлы к сообщениям
Вы не можете скачивать файлы

!ВНИМАНИЕ!
Сайт не предоставляет электронные версии произведений, а занимается лишь коллекционированием и каталогизацией ссылок, присылаемых и публикуемых на форуме нашими читателями. Если вы являетесь правообладателем какого-либо представленного материала и не желаете, чтобы ссылка на него находилась в нашем каталоге, свяжитесь с нами, и мы незамедлительно удалим ее. Файлы для обмена на трекере предоставлены пользователями сайта, и администрация не несет ответственности за их содержание. Просьба не заливать файлы, защищенные авторскими правами, а также файлы нелегального содержания!