[ Сегодня идет свободное скачивание без начисления Download ]


Статистика раздачи
Скачал: [ 3 ]
 
   
 
 
 
 
Союзники / Allied (2016) WEB-DL [1080p] ATV
«Nothing is as it seems»
- Год выпуска: 2016
Производство: США, Великобритания
Жанр: Боевик, триллер, драма, мелодрама, военный
Продолжительность: 02:04:43
Перевод: Дублированный (iTunes)
Субтитры: Русские форсированные, Английские форсированные, Русские
Режиссер: Роберт Земекис
Актеры: Брэд Питт, Марион Котийяр, Лиззи Каплан, Аугуст Диль, Шарлотта Хоуп, Рэффи Кэссиди, Мэттью Гуд, Дэниэл Беттс, Саймон МакБерни, Джаред Харрис
Мировая премьера: 13 ноября 2016

Описание: 1942 год. Во время опасной миссии в Северной Африке разведчик Макс встречает участницу сопротивления Марианну. Их чувствам суждено подвергнуться тысяче испытаний, главным из которых станет испытание правдой…-Качество: WEB-DL 1080p
Контейнер: M4V
Видео: H.264, 1916x796, 2.40:1, 4 556 Kbps, 23.976 fps
Аудио 1: Русский/Дублированный (iTunes), AAC / 2.0 / 160 Kbps / 48.0 KHz
Аудио 2: Английский/Оригинальная дорожка , AAC / 2.0 / 160 Kbps / 48.0 KHz
Аудио 3: Русский/Дублированный (iTunes), AC-3 / 5.1 / 384 Kbps / 48.0 KHz
Аудио 4: Английский/Оригинальная дорожка , AC-3 / 5.1 / 384 Kbps / 48.0 KHz-

iTunes Meta Tags

Sort Name: Allied
XID: Apple:vendor_id:2016-915140
contentID: 1172063943
Copyright: © 2016 Paramount Pictures Corporation. All Rights Reserved.
Screenwriters: Стивен Найт
Producers: Грэм Кинг, Стивен Найт, Жаклин Ливайн
Director: Роберт Земекис
Cast: Брэд Питт, Марион Котийяр, Лиззи Каплан, Аугуст Диль, Шарлотта Хоуп, Рэффи Кэссиди, Мэттью Гуд, Дэниэл Беттс, Саймон МакБерни, Джаред Харрис, Юрий Деркач, Татьяна Шитова, Анна Аннинская, Евгений Вальц, Василиса Эльдарова
Studio: Paramount Pictures
Rating: 5
Long Description: 1942 год. Во время опасной миссии в Северной Африке разведчик Макс встречает участницу сопротивления Марианну. Их чувствам суждено подвергнуться тысяче испытаний, главным из которых станет испытание правдой...
Description: 1942 год. Во время опасной миссии в Северной Африке разведчик Макс встречает участницу сопротивления Марианну. Их чувствам суждено подвергнуться тысяче испытаний, главным из которых станет испытание правдой...
Release Date: 2016-11-13T08:00:00Z
Genre: Drama
Artist: Robert Zemeckis
Name: Allied

MediaInfo

General
Complete name : /Users/imac/HandBrake/Allied.WEB-DL.1080p.m4v
Format : MPEG-4
Codec ID : M4V
File size : 4.93 GiB
Duration : 2h 5mn
Overall bit rate mode : Variable
Overall bit rate : 5 640 Kbps
Movie name : Allied
Performer : Robert Zemeckis
Director : Роберт Земекис
Actor : Брэд Питт / Марион Котийяр / Лиззи Каплан / Аугуст Диль / Шарлотта Хоуп / Рэффи Кэссиди / Мэттью Гуд / Дэниэл Беттс / Саймон МакБерни / Джаред Харрис / Юрий Деркач / Татьяна Шитова / Анна Аннинская / Евгений Вальц / Василиса Эльдарова
Screenplay by : Стивен Найт
Producer : Грэм Кинг / Стивен Найт / Жаклин Ливайн
Production studio : Paramount Pictures
Genre : Drama
ContentType : Short Film
Description : 1942 год. Во время опасной миссии в Северной Африке разведчик Макс встречает участницу сопротивления Марианну. Их чувствам суждено подвергнуться тысяче испытаний, главным из которых станет испытание правдой...
Recorded date : UTC 2016-11-13 08:00:00
Encoded date : UTC 2017-02-20 21:23:04
Tagged date : UTC 2017-02-20 21:41:43
Copyright : © 2016 Paramount Pictures Corporation. All Rights Reserved.
Cover : Yes
Rating : None
Title/Sort : Allied
LongDescription : 1942 год. Во время опасной миссии в Северной Африке разведчик Макс встречает участницу сопротивления Марианну. Их чувствам суждено подвергнуться тысяче испытаний, главным из которых станет испытание правдой...
AppleStoreCatalogID : 1172063943
Vendor : Apple:vendor_id:2016-915140
ContentRating : mpaa|R|400|
Video #1
ID : 1
Format : AVC
Format/Info : Advanced Video Codec
Format profile : High@L4
Format settings, CABAC : Yes
Format settings, ReFrames : 5 frames
Codec ID : avc1
Codec ID/Info : Advanced Video Coding
Duration : 2h 5mn
Source duration : 2h 5mn
Bit rate : 4 556 Kbps
Width : 1 916 pixels
Height : 796 pixels
Display aspect ratio : 2.40:1
Frame rate mode : Variable
Frame rate : 23.976 fps
Minimum frame rate : 23.810 fps
Maximum frame rate : 24.390 fps
Color space : YUV
Chroma subsampling : 4:2:0
Bit depth : 8 bits
Scan type : Progressive
Bits/(Pixel*Frame) : 0.125
Stream size : 3.98 GiB (81%)
Source stream size : 3.98 GiB (81%)
Title : Main Program
Language : English
Encoded date : UTC 2017-02-20 21:23:04
Tagged date : UTC 2017-02-20 21:23:48
Color range : Limited
Color primaries : BT.709
Transfer characteristics : BT.709
Matrix coefficients : BT.709
Video #2
ID : 10
Format : JPEG
Codec ID : jpeg
Duration : 2h 5mn
Bit rate mode : Variable
Bit rate : 613 bps
Width : 640 pixels
Height : 265 pixels
Display aspect ratio : 2.40:1
Frame rate mode : Variable
Frame rate : 0.002 fps
Minimum frame rate : 0.001 fps
Maximum frame rate : 0.003 fps
Color space : YUV
Chroma subsampling : 4:2:0
Bit depth : 8 bits
Compression mode : Lossy
Bits/(Pixel*Frame) : 1.807
Stream size : 561 KiB (0%)
Title : Chapter Images
Language : English
Encoded date : UTC 2017-02-20 21:23:53
Tagged date : UTC 2017-02-20 21:23:53
Audio #1
ID : 2
Format : AAC
Format/Info : Advanced Audio Codec
Format profile : LC
Codec ID : 40
Duration : 2h 4mn
Bit rate mode : Variable
Bit rate : 155 Kbps
Maximum bit rate : 262 Kbps
Channel(s) : 2 channels
Channel positions : Front: L R
Sampling rate : 48.0 KHz
Compression mode : Lossy
Stream size : 138 MiB (3%)
Title : Russian Stereo
Language : Russian
Encoded date : UTC 2017-02-20 21:23:04
Tagged date : UTC 2017-02-20 21:23:48
Audio #2
ID : 3
Format : AAC
Format/Info : Advanced Audio Codec
Format profile : LC
Codec ID : 40
Duration : 2h 4mn
Bit rate mode : Variable
Bit rate : 154 Kbps
Maximum bit rate : 249 Kbps
Channel(s) : 2 channels
Channel positions : Front: L R
Sampling rate : 48.0 KHz
Compression mode : Lossy
Stream size : 138 MiB (3%)
Title : English Stereo
Language : English
Encoded date : UTC 2017-02-20 21:23:04
Tagged date : UTC 2017-02-20 21:23:48
Audio #3
ID : 4
Format : AC-3
Format/Info : Audio Coding 3
Mode extension : CM (complete main)
Format settings, Endianness : Big
Codec ID : ac-3
Duration : 2h 4mn
Bit rate mode : Constant
Bit rate : 384 Kbps
Channel(s) : 6 channels
Channel positions : Front: L C R, Side: L R, LFE
Sampling rate : 48.0 KHz
Bit depth : 16 bits
Compression mode : Lossy
Stream size : 342 MiB (7%)
Title : Russian DD 5.1
Language : Russian
Encoded date : UTC 2017-02-20 21:23:04
Tagged date : UTC 2017-02-20 21:23:48
Audio #4
ID : 5
Format : AC-3
Format/Info : Audio Coding 3
Mode extension : CM (complete main)
Format settings, Endianness : Big
Codec ID : ac-3
Duration : 2h 4mn
Bit rate mode : Constant
Bit rate : 384 Kbps
Channel(s) : 6 channels
Channel positions : Front: L C R, Side: L R, LFE
Sampling rate : 48.0 KHz
Bit depth : 16 bits
Compression mode : Lossy
Stream size : 342 MiB (7%)
Title : English DD 5.1
Language : English
Encoded date : UTC 2017-02-20 21:23:04
Tagged date : UTC 2017-02-20 21:23:48
Text #1
ID : 6
Format : Timed Text
Muxing mode : sbtl
Codec ID : tx3g
Duration : 1h 39mn
Bit rate mode : Variable
Bit rate : 10 bps
Stream size : 6.96 KiB (0%)
Title : Russian forced
Language : Russian
Encoded date : UTC 2017-02-20 21:23:04
Tagged date : UTC 2017-02-20 21:23:33
Text #2
ID : 7
Format : Timed Text
Muxing mode : sbtl
Codec ID : tx3g
Duration : 1h 39mn
Bit rate mode : Variable
Bit rate : 6 bps
Stream size : 4.17 KiB (0%)
Title : English forced
Language : English
Encoded date : UTC 2017-02-20 21:23:04
Tagged date : UTC 2017-02-20 21:23:33
Text #3
ID : 8
Format : Timed Text
Muxing mode : sbtl
Codec ID : tx3g
Duration : 1h 56mn
Bit rate mode : Variable
Bit rate : 61 bps
Stream size : 52.0 KiB (0%)
Title : Russian full
Language : Russian
Encoded date : UTC 2017-02-20 21:23:04
Tagged date : UTC 2017-02-20 21:23:43
Menu #1
00:00:00.000 : Chapter 1
00:05:37.000 : Chapter 2
00:16:37.999 : Chapter 3
00:24:30.000 : Chapter 4
00:33:51.000 : Chapter 5
00:43:06.000 : Chapter 6
00:49:13.000 : Chapter 7
01:01:37.999 : Chapter 8
01:09:35.000 : Chapter 9
01:16:43.000 : Chapter 10
01:26:14.000 : Chapter 11
01:31:52.000 : Chapter 12
01:40:11.000 : Chapter 13
01:47:24.000 : Chapter 14
01:56:34.000 : Chapter 15
Menu #2
ID : 9
Codec ID : text
Duration : 2h 5mn
Language : English
Encoded date : UTC 2017-02-20 21:23:48
Tagged date : UTC 2017-02-20 21:23:48
00:00:00.000 : Chapter 1
00:05:37.000 : Chapter 2
00:16:37.999 : Chapter 3
00:24:30.000 : Chapter 4
00:33:51.000 : Chapter 5
00:43:06.000 : Chapter 6
00:49:13.000 : Chapter 7
01:01:37.999 : Chapter 8
01:09:35.000 : Chapter 9
01:16:43.000 : Chapter 10
01:26:14.000 : Chapter 11
01:31:52.000 : Chapter 12
01:40:11.000 : Chapter 13
01:47:24.000 : Chapter 14
01:56:34.000 : Chapter 15
Bit rate mode : VBR
Скриншоты: -

Релиз подготовлен для просмотра на Apple TV, iPad, iPhone, iPod Touch.
Для просмотра данного релиза на компьютере с ОС Windows рекомендуется использовать VLC media player

[Цитировать]



Показать сообщения:    

Текущее время: 20-Окт 03:44

Часовой пояс: UTC + 6


Вы не можете начинать темы
Вы не можете отвечать на сообщения
Вы не можете редактировать свои сообщения
Вы не можете удалять свои сообщения
Вы не можете голосовать в опросах
Вы не можете прикреплять файлы к сообщениям
Вы не можете скачивать файлы

!ВНИМАНИЕ!
Сайт не предоставляет электронные версии произведений, а занимается лишь коллекционированием и каталогизацией ссылок, присылаемых и публикуемых на форуме нашими читателями. Если вы являетесь правообладателем какого-либо представленного материала и не желаете, чтобы ссылка на него находилась в нашем каталоге, свяжитесь с нами, и мы незамедлительно удалим ее. Файлы для обмена на трекере предоставлены пользователями сайта, и администрация не несет ответственности за их содержание. Просьба не заливать файлы, защищенные авторскими правами, а также файлы нелегального содержания!