[ Сегодня идет свободное скачивание без начисления Download ]


Статистика раздачи
Буду качать: [ 1 ]
Скачал: [ 10 ]
 
   
 
 
 
 
Война / Погибший / Man Down
Год выпуска: 2015
Страна: США
Производство: Krannel Pictures, Mpower Pictures
Жанр: триллер, драма
Режиссёр: Дито Монтиель
В ролях: Шайа ЛаБаф, Джай Кортни, Гари Олдман, Кейт Мара, Тори Киттлз, Клифтон Коллинз мл., Чарли Шотуэлл, Хосе Пабло Кантильо, Джастин Смит, Пол Садо
Перевод: Профессиональный (полное дублирование) [iTunes]
Субтитры: Отсутствуют
Описание: Война ставит человека перед выбором, который навсегда стирает грань между реальностью и иллюзией. Морской пехотинец Гэбриэл Драммер со своим боевым другом Дэвином возвращается домой после кампании в Ираке, которая закончилась для Америки катастрофой. Страна лежит в руинах пост-апокалипсиса. Гэбриэл решает во что бы то ни стало отыскать жену и сына в новом мире, где господствует жестокость и право сильного. Сам того не подозревая, он огнём и мечом прокладывает себе дорогу к дому, где ему суждено понять, что всё далеко не так, как кажется.

Качество: HDRip
Продолжительность: 01:30:28
Формат: AVI
Видео кодек: XviD
Аудио кодек: AС3
Видео: 720x304 (2.35:1), 23.976 fps, XviD ~ 1772 kbps avg, 0.338 bit/pixel
Аудио: AC3, 48 kHz, 6 ch, ~ 384.00 kbps avg

MI

Общее
Полное имя                               : Man.Down.2O16.D.HdRip.14OOMB.avi
Формат                                   : AVI
Формат/Информация                        : Audio Video Interleave
Размер файла                             : 1,37 Гбайт
Продолжительность                        : 1 ч. 30 м.
Общий поток                              : 2165 Кбит/сек
Название фильма                          : B0YHa.2O16.D.HdRip.14OOMB
Программа кодирования                    : VirtualDubMod 1.5.10.2 (build 2540/release)
Формат оригинала/Имя                     : Movie
Видео
Идентификатор                            : 0
Формат                                   : MPEG-4 Visual
Профиль формата                          : Advanced Simple@L5
Параметр BVOP формата                    : 2
Параметр QPel формата                    : Нет
Параметр GMC формата                     : Без точки перехода
Параметр матрицы формата                 : Default (MPEG)
Идентификатор кодека                     : XVID
Идентификатор кодека/Подсказка           : XviD
Продолжительность                        : 1 ч. 30 м.
Битрейт                                  : 1772 Кбит/сек
Ширина                                   : 720 пикселей
Высота                                   : 304 пикселя
Соотношение сторон                       : 2,35:1
Частота кадров                           : 23,976 (24000/1001) кадра/сек
Цветовое пространство                    : YUV
Субдискретизация насыщенности            : 4:2:0
Битовая глубина                          : 8 бит
Тип развёртки                            : Прогрессивная
Метод сжатия                             : С потерями
Бит/(Пиксели*Кадры)                      : 0.338
Размер потока                            : 1,12 Гбайт (82%)
Библиотека кодирования                   : XviD 1.2.1 (UTC 2008-12-04)
Аудио
Идентификатор                            : 1
Формат                                   : AC-3
Формат/Информация                        : Audio Coding 3
Расширение режима                        : CM (complete main)
Параметр Endianness формата              : Big
Идентификатор кодека                     : 2000
Продолжительность                        : 1 ч. 30 м.
Вид битрейта                             : Постоянный
Битрейт                                  : 384 Кбит/сек
Каналы                                   : 6 каналов
Расположение каналов                     : Front: L C R, Side: L R, LFE
Частота                                  : 48,0 КГц
Частота кадров                           : 31,250 кадров/сек (1536 spf)
Битовая глубина                          : 16 бит
Метод сжатия                             : С потерями
Размер потока                            : 248 Мбайт (18%)
Выравнивание                             : Разделение по промежуткам
Продолжительность промежутка             : 42  мс. (1,00 видеокадр)
Время предзагрузки промежутка            : 500  мс.

Скриншоты


[Цитировать]



Показать сообщения:    

Текущее время: 21-Ноя 04:48

Часовой пояс: UTC + 6


Вы не можете начинать темы
Вы не можете отвечать на сообщения
Вы не можете редактировать свои сообщения
Вы не можете удалять свои сообщения
Вы не можете голосовать в опросах
Вы не можете прикреплять файлы к сообщениям
Вы не можете скачивать файлы

!ВНИМАНИЕ!
Сайт не предоставляет электронные версии произведений, а занимается лишь коллекционированием и каталогизацией ссылок, присылаемых и публикуемых на форуме нашими читателями. Если вы являетесь правообладателем какого-либо представленного материала и не желаете, чтобы ссылка на него находилась в нашем каталоге, свяжитесь с нами, и мы незамедлительно удалим ее. Файлы для обмена на трекере предоставлены пользователями сайта, и администрация не несет ответственности за их содержание. Просьба не заливать файлы, защищенные авторскими правами, а также файлы нелегального содержания!