[ Сегодня идет свободное скачивание без начисления Download ]


Статистика раздачи
Скачал: [ 1 ]
 
   
 
 
 
 
На одну ночь / One Night Stand (2016) WEB-DL 720p - Производство: Индия, Swiss Entertainment
Жанр: Драма, Мелодрама, Триллер
Режиссер: На одну ночь
Актеры: Санни Леоне, Танудж Вирвани, Нарендра Джейтли
Описание:
Сюжет картины закручивается вокруг молодого человека по имени Урвил. Несмотря на то, что у главного героя есть семья, он соглашается принять участие в вечеринке, которая будет устроена его лучшими друзьями. На мероприятии парень знакомится с прекрасной Селиной. Урвил изменяет своей жене вместе с этой девушкой, а наутро они договариваются никогда больше не встречаться. Проходит несколько недель, но Урвил никак не может выбросить воспоминания о Селине из своей головы. Главный герой пускается на поиски той таинственной незнакомки, однако, найдя её, он натыкается на холодный приём, ведь Селина вовсе не рада вновь увидеть Урвила


Дата мировой премьеры: 6 мая 2016
Релиз от: KOSHARA
Продолжительность: 01:38:17
Качество видео: WEB-DL [sample]
Перевод: Многоголосый закадровый, профессиональный (Синема УС)
Субтитры: Отсутствуют
Видео: AVC/H.264, 1280x536, ~ 3936 kbps
Аудио: AC3, 2 ch, 384 kbps

Mediainfo:

Общее
Уникальный идентификатор : 224558556911515032824899316446631624909 (0xA8F067A7AF7AEE69B68FBFE1370500CD)
Полное имя : D:\Загрузки uTorrent\One.Night.Stand.2016.P.WEB-DL.72Op_KOSHARA.mkv
Формат : Matroska
Версия формата : Version 2
Размер файла : 2,97 Гбайт
Продолжительность : 1 ч. 38 м.
Режим общего битрейта : Переменный
Общий поток : 4322 Кбит/сек
Дата кодирования : UTC 2017-02-22 16:48:55
Программа кодирования : mkvmerge v8.3.0 ('Over the Horizon') 64bit
Библиотека кодирования : libebml v1.3.1 + libmatroska v1.4.2
Видео
Идентификатор : 1
Формат : AVC
Формат/Информация : Advanced Video Codec
Профиль формата : High@L4.1
Параметр CABAC формата : Да
Параметр ReFrames формата : 12 кадров
Идентификатор кодека : V_MPEG4/ISO/AVC
Продолжительность : 1 ч. 38 м.
Вид битрейта : Переменный
Битрейт : 3936 Кбит/сек
Максимальный битрейт : 4300 Кбит/сек
Ширина : 1280 пикселей
Высота : 536 пикселей
Соотношение сторон : 2,40:1
Режим частоты кадров : Постоянный
Частота кадров : 24,000 кадра/сек
Стандарт вещания : Component
Цветовое пространство : YUV
Субдискретизация насыщенности : 4:2:0
Битовая глубина : 8 бит
Тип развёртки : Прогрессивная
Бит/(Пиксели*Кадры) : 0.239
Размер потока : 2,70 Гбайт (91%)
Default : Да
Forced : Нет
Цветовой диапазон : Limited
Основные цвета : BT.709
Характеристики трансфера : BT.709
Коэффициенты матрицы : BT.709
Аудио
Идентификатор : 2
Формат : AC-3
Формат/Информация : Audio Coding 3
Расширение режима : CM (complete main)
Параметр Endianness формата : Big
Идентификатор кодека : A_AC3
Продолжительность : 1 ч. 38 м.
Вид битрейта : Постоянный
Битрейт : 384 Кбит/сек
Каналы : 2 канала
Расположение каналов : Front: L R
Частота : 48,0 КГц
Частота кадров : 31,250 кадров/сек (1536 spf)
Битовая глубина : 16 бит
Метод сжатия : С потерями
Размер потока : 270 Мбайт (9%)
Default : Да
Forced : Нет
Скриншоты:

[Цитировать]



Показать сообщения:    

Текущее время: 21-Ноя 04:43

Часовой пояс: UTC + 6


Вы не можете начинать темы
Вы не можете отвечать на сообщения
Вы не можете редактировать свои сообщения
Вы не можете удалять свои сообщения
Вы не можете голосовать в опросах
Вы не можете прикреплять файлы к сообщениям
Вы не можете скачивать файлы

!ВНИМАНИЕ!
Сайт не предоставляет электронные версии произведений, а занимается лишь коллекционированием и каталогизацией ссылок, присылаемых и публикуемых на форуме нашими читателями. Если вы являетесь правообладателем какого-либо представленного материала и не желаете, чтобы ссылка на него находилась в нашем каталоге, свяжитесь с нами, и мы незамедлительно удалим ее. Файлы для обмена на трекере предоставлены пользователями сайта, и администрация не несет ответственности за их содержание. Просьба не заливать файлы, защищенные авторскими правами, а также файлы нелегального содержания!