[ Сегодня идет свободное скачивание без начисления Download ]


Статистика раздачи
Качаю: [ 2 ]
Скачал: [ 24 ]
 
   
 
 
 
 
Фантастические твари и где они обитают / Fantastic Beasts and Where to Find Them
«Открой новую главу волшебного мира Дж.К.Роулинг»
Год выпуска: 2016
Страна: Великобритания, США
Производство: Heyday Films, Warner Bros. Pictures
Жанр: Фэнтези, приключения, семейный
Режиссёр: Дэвид Йейтс
В ролях: Эдди Редмэйн, Кэтрин Уотерстон, Дэн Фоглер, Элисон Судол, Колин Фаррелл, Кармен Эджого, Эзра Миллер, Саманта Мортон, Рон Перлман, Джон Войт, Доминик Типпер
Перевод: Профессиональный (полное дублирование) [Лицензия] + Оригинал (английский)
Субтитры: Отсутствуют
Описание: Поиск и изучение необычайных волшебных существ приводят магозоолога Ньюта Саламандера в Нью-Йорк. Скорее всего, он отбыл бы на поезде дальше, если бы не не маг (так в Америке называют магглов) по имени Якоб, оставленный в неположенном месте магический чемодан и побег из него фантастических животных Ньюта.

Качество: BDRip 1080p
Продолжительность: 02:12:53
Формат: MKV
Видео кодек: AVC
Аудио кодек: AС3, DTS
Видео: 1920x800 (2.40:1), 23.976 fps, AVC ~ 12.3 Mbps avg, 0.334 bit/pixel
Аудио#1: AC3, 48 kHz, 6 ch, ~ 448.00 kbps avg (Rus)
Аудио#2: DTS, 48 kHz, 6 ch, ~ 1 509 kbps avg (Eng)
Дата премьеры (мир): 8 ноября 2016
Дата премьеры (РФ): 17 ноября 2016, «Каро-Премьер»

MI

General
Unique ID                      : 174094950320639039592810132963854926788 (0x82F977C1AB671F61ACC06357CC0843C4)
Complete name                  : E:Fantastic.Beasts.2016.BDRip.1080p.mkv
Format                         : Matroska
Format version                 : Version 4 / Version 2
File size                      : 13.2 GiB
Duration                       : 2h 12mn
Overall bit rate               : 14.3 Mbps
Encoded date                   : UTC 2017-02-25 04:59:03
Writing application            : mkvmerge v8.3.0 ('Over the Horizon') 64bit
Writing library                : libebml v1.3.1 + libmatroska v1.4.2
Video
ID                             : 1
Format                         : AVC
Format/Info                    : Advanced Video Codec
Format profile                 : High@L4.1
Format settings, CABAC         : Yes
Format settings, ReFrames      : 4 frames
Codec ID                       : V_MPEG4/ISO/AVC
Duration                       : 2h 12mn
Bit rate                       : 12.3 Mbps
Width                          : 1 920 pixels
Height                         : 800 pixels
Display aspect ratio           : 2.40:1
Frame rate mode                : Constant
Frame rate                     : 23.976 (24000/1001) fps
Color space                    : YUV
Chroma subsampling             : 4:2:0
Bit depth                      : 8 bits
Scan type                      : Progressive
Bits/(Pixel*Frame)             : 0.334
Stream size                    : 11.4 GiB (86%)
Language                       : English
Default                        : Yes
Forced                         : No
Audio #1
ID                             : 2
Format                         : AC-3
Format/Info                    : Audio Coding 3
Mode extension                 : CM (complete main)
Format settings, Endianness    : Big
Codec ID                       : A_AC3
Duration                       : 2h 12mn
Bit rate mode                  : Constant
Bit rate                       : 448 Kbps
Channel(s)                     : 6 channels
Channel positions              : Front: L C R, Side: L R, LFE
Sampling rate                  : 48.0 KHz
Frame rate                     : 31.250 fps (1536 spf)
Compression mode               : Lossy
Stream size                    : 426 MiB (3%)
Language                       : Russian
Default                        : Yes
Forced                         : No
Audio #2
ID                             : 3
Format                         : DTS
Format/Info                    : Digital Theater Systems
Mode                           : 16
Format settings, Endianness    : Big
Codec ID                       : A_DTS
Duration                       : 2h 12mn
Bit rate mode                  : Constant
Bit rate                       : 1 509 Kbps
Channel(s)                     : 6 channels
Channel positions              : Front: L C R, Side: L R, LFE
Sampling rate                  : 48.0 KHz
Frame rate                     : 93.750 fps (512 spf)
Bit depth                      : 16 bits
Compression mode               : Lossy
Delay relative to video        : 83ms
Stream size                    : 1.40 GiB (11%)
Language                       : English
Default                        : No
Forced                         : No
Menu
00:00:00.000                   : :Chapter 1
00:08:40.394                   : :Chapter 2
00:18:55.843                   : :Chapter 3
00:28:23.785                   : :Chapter 4
00:38:34.312                   : :Chapter 5
00:48:08.719                   : :Chapter 6
00:58:19.370                   : :Chapter 7
01:09:14.817                   : :Chapter 8
01:17:26.516                   : :Chapter 9
01:29:33.785                   : :Chapter 10
01:38:02.209                   : :Chapter 11
01:50:27.996                   : :Chapter 12
01:59:04.595                   : :Chapter 13
02:04:12.069                   : :Chapter 14

Скриншоты


[Цитировать]



Показать сообщения:    

Текущее время: 20-Окт 09:22

Часовой пояс: UTC + 6


Вы не можете начинать темы
Вы не можете отвечать на сообщения
Вы не можете редактировать свои сообщения
Вы не можете удалять свои сообщения
Вы не можете голосовать в опросах
Вы не можете прикреплять файлы к сообщениям
Вы не можете скачивать файлы

!ВНИМАНИЕ!
Сайт не предоставляет электронные версии произведений, а занимается лишь коллекционированием и каталогизацией ссылок, присылаемых и публикуемых на форуме нашими читателями. Если вы являетесь правообладателем какого-либо представленного материала и не желаете, чтобы ссылка на него находилась в нашем каталоге, свяжитесь с нами, и мы незамедлительно удалим ее. Файлы для обмена на трекере предоставлены пользователями сайта, и администрация не несет ответственности за их содержание. Просьба не заливать файлы, защищенные авторскими правами, а также файлы нелегального содержания!