[ Сегодня идет свободное скачивание без начисления Download ]


Статистика раздачи
Скачал: [ 10 ]
 
   
 
 
 
 
Фантастические твари и где они обитают / Fantastic Beasts and Where to Find Them Информация о фильме
Название: Фантастические твари и где они обитают
Оригинальное название: Fantastic Beasts and Where to Find Them
Страна: Великобритания, США
Студия: Heyday Films, Warner Bros. Pictures
Жанр: Фэнтези, приключения, семейный
Год выпуска: 2016
Продолжительность: 02:12:52
Перевод: Профессиональный (дублированный)
Cубтитры: Русские (forced, full), английские
Оригинальная аудиодорожка: английская
Режиссер: Дэвид Йейтс / David Yates
В ролях: Эдди Редмэйн, Кэтрин Уотерстон, Дэн Фоглер, Элисон Судол, Колин Фаррелл, Кармен Эджого, Эзра Миллер, Саманта Мортон, Рон Перлман, Джон Войт.
Описание: Поиск и изучение необычайных волшебных существ приводят магозоолога Ньюта Саламандера в Нью-Йорк. Скорее всего, он отбыл бы на поезде дальше, если бы не не маг (так в Америке называют магглов) по имени Якоб, оставленный в неположенном месте магический чемодан и побег из него фантастических животных Ньюта.

Тип релиза: BDRip 720p
Контейнер: MKV
Видео: 1280x534 (2.40:1), 23.976 fps, MPEG-4 AVC ~5562 kbps avg, 0.339 bit/pixel
Аудио / RUS: AC3, 48 kHz, Dolby Digital, 6 ch, ~448 kbps avg
Аудио / ENG: DTS, 48 kHz, Dolby Digital, 6 ch, ~1509 kbps avg
Формат субтитров: softsub (SRT)

MediaInfo

x264 [info]: frame I:1607 Avg QP:14.13 size:104730
x264 [info]: frame P:41039 Avg QP:15.42 size: 50627
x264 [info]: frame B:148499 Avg QP:16.22 size: 22201
Format : Matroska
Format version : Version 4 / Version 2
File size : 6.98 GiB
Duration : 2h 12mn
Overall bit rate : 7 522 Kbps
Movie name : Фантастические твари и где они обитают. (Tonik)
Encoded date : UTC 2017-02-25 14:28:47
Writing application : mkvmerge v7.1.0 ('Good Love') 64bit built on Jul 27 2014 13:06:55
Writing library : libebml v1.3.0 + libmatroska v1.4.1
_STATISTICS_WRITING_APP : mkvmerge v7.1.0 ('Good Love') 64bit built on Jul 27 2014 13:06:55
_STATISTICS_WRITING_DATE_UTC : 2017-02-25 14:28:47
_STATISTICS_TAGS : BPS DURATION NUMBER_OF_FRAMES NUMBER_OF_BYTES
DURATION : 02:11:35.429000000
NUMBER_OF_FRAMES : 1599
NUMBER_OF_BYTES : 44203
Video
ID : 1
Format : AVC
Format/Info : Advanced Video Codec
Format profile : High@L4.1
Format settings, CABAC : Yes
Format settings, ReFrames : 12 frames
Codec ID : V_MPEG4/ISO/AVC
Duration : 2h 12mn
Bit rate : 5 415 Kbps
Width : 1 280 pixels
Height : 534 pixels
Display aspect ratio : 2.40:1
Frame rate mode : Constant
Frame rate : 23.976 fps
Color space : YUV
Chroma subsampling : 4:2:0
Bit depth : 8 bits
Scan type : Progressive
Bits/(Pixel*Frame) : 0.330
Stream size : 5.03 GiB (72%)
Writing library : x264 core 148 r2597 e86f3a1
Encoding settings : cabac=1 / ref=12 / deblock=1:-3:-3 / analyse=0x3:0x133 / me=umh / subme=11 / psy=1 / psy_rd=1.00:0.00 / mixed_ref=1 / me_range=32 / chroma_me=1 / trellis=2 / 8x8dct=1 / cqm=0 / deadzone=21,11 / fast_pskip=0 / chroma_qp_offset=-2 / threads=17 / lookahead_threads=4 / sliced_threads=0 / nr=0 / decimate=0 / interlaced=0 / bluray_compat=0 / constrained_intra=0 / bframes=11 / b_pyramid=2 / b_adapt=2 / b_bias=0 / direct=3 / weightb=1 / open_gop=0 / weightp=2 / keyint=240 / keyint_min=24 / scenecut=40 / intra_refresh=0 / rc_lookahead=40 / rc=crf / mbtree=0 / crf=16.8 / qcomp=0.70 / qpmin=0 / qpmax=69 / qpstep=4 / vbv_maxrate=40000 / vbv_bufsize=30000 / crf_max=0.0 / nal_hrd=none / filler=0 / ip_ratio=1.20 / pb_ratio=1.20 / aq=3:0.85
Language : English
Default : Yes
Forced : No
_STATISTICS_WRITING_APP : mkvmerge v7.1.0 ('Good Love') 64bit built on Jul 27 2014 13:06:55
_STATISTICS_WRITING_DATE_UTC : 2017-02-25 14:28:47
_STATISTICS_TAGS : BPS DURATION NUMBER_OF_FRAMES NUMBER_OF_BYTES
DURATION : 02:12:52.340000000
NUMBER_OF_FRAMES : 191145
NUMBER_OF_BYTES : 5542740667
Audio #1
ID : 2
Format : AC-3
Format/Info : Audio Coding 3
Mode extension : CM (complete main)
Format settings, Endianness : Big
Codec ID : A_AC3
Duration : 2h 12mn
Bit rate mode : Constant
Bit rate : 448 Kbps
Channel(s) : 6 channels
Channel positions : Front: L C R, Side: L R, LFE
Sampling rate : 48.0 KHz
Bit depth : 16 bits
Compression mode : Lossy
Stream size : 426 MiB (6%)
Language : Russian
Default : Yes
Forced : No
Audio #2
ID : 3
Format : DTS
Format/Info : Digital Theater Systems
Mode : 16
Format settings, Endianness : Big
Codec ID : A_DTS
Duration : 2h 12mn
Bit rate mode : Constant
Bit rate : 1 509 Kbps
Channel(s) : 6 channels
Channel positions : Front: L C R, Side: L R, LFE
Sampling rate : 48.0 KHz
Bit depth : 16 bits
Compression mode : Lossy
Stream size : 1.40 GiB (20%)
Language : English
Default : No
Forced : No
Text #1
ID : 4
Format : UTF-8
Codec ID : S_TEXT/UTF8
Codec ID/Info : UTF-8 Plain Text
Title : Forced
Language : Russian
Default : Yes
Forced : No
Text #2
ID : 5
Format : UTF-8
Codec ID : S_TEXT/UTF8
Codec ID/Info : UTF-8 Plain Text
Language : Russian
Default : No
Forced : No
Text #3
ID : 6
Format : UTF-8
Codec ID : S_TEXT/UTF8
Codec ID/Info : UTF-8 Plain Text
Language : English
Default : No
Forced : No
Menu
00:00:00.000 : en:00:00:00.000
00:08:40.270 : en:00:08:40.270
00:18:55.718 : en:00:18:55.718
00:28:23.660 : en:00:28:23.660
00:38:34.187 : en:00:38:34.187
00:48:08.594 : en:00:48:08.594
00:58:19.246 : en:00:58:19.246
01:09:14.692 : en:01:09:14.692
01:17:26.392 : en:01:17:26.392
01:29:33.660 : en:01:29:33.660
01:38:02.085 : en:01:38:02.085
01:50:27.871 : en:01:50:27.871
01:59:04.471 : en:01:59:04.471
02:04:11.944 : en:02:04:11.944

Скриншоты



[Цитировать]



Показать сообщения:    

Текущее время: 20-Ноя 01:55

Часовой пояс: UTC + 6


Вы не можете начинать темы
Вы не можете отвечать на сообщения
Вы не можете редактировать свои сообщения
Вы не можете удалять свои сообщения
Вы не можете голосовать в опросах
Вы не можете прикреплять файлы к сообщениям
Вы не можете скачивать файлы

!ВНИМАНИЕ!
Сайт не предоставляет электронные версии произведений, а занимается лишь коллекционированием и каталогизацией ссылок, присылаемых и публикуемых на форуме нашими читателями. Если вы являетесь правообладателем какого-либо представленного материала и не желаете, чтобы ссылка на него находилась в нашем каталоге, свяжитесь с нами, и мы незамедлительно удалим ее. Файлы для обмена на трекере предоставлены пользователями сайта, и администрация не несет ответственности за их содержание. Просьба не заливать файлы, защищенные авторскими правами, а также файлы нелегального содержания!