[ Сегодня идет свободное скачивание без начисления Download ]


Статистика раздачи
Скачал: [ 13 ]
 
   
 
 
 
 
Ограды / FencesГод выпуска: 2016
Страна: США
Производство: Bron Studios, MACRO, Paramount Pictures, Scott Rudin Productions
Жанр: Драма
Режиссёр: Дензел Вашингтон
В ролях: Дензел Вашингтон, Виола Дэвис, Майкелти Уильямсон, Расселл Хорнсби, Саня Сидни, Йован Адепо, Стивен Хендерсон, Туссэн Рафаэль Абессоло, Донтес Джеймс, Кристофер С. Меле
Перевод: Профессиональный (полное дублирование) [Лицензия]
Субтитры: Русские
Описание: Бывший бейсболист афро-американского происхождения, теперь собирающий мусор с улиц Питтсбурга, изо всех сил старается обеспечить свою семью в Америке 1950-х, где расовый вопрос все еще остается открытым.

Качество: BDRip
Продолжительность: 02:18:51
Формат: AVI
Видео кодек: XviD
Аудио кодек: AС3
Видео: 720x304 (2.35:1), 23.976 fps, XviD ~ 1790 kbps avg, 0.341 bit/pixel
Аудио: AC 3, 48 kHz, 6 ch, ~ 448.00 kbps avg
Дата премьеры (мир): 16 декабря 2016
Релиз на DVD: 24 апреля 2017

MInfo

General
Complete name : E:\1\Готовые\Fences.2016.BDRip.2100MB-CEE\Fences.2016.BDRip.2100MB-CEE.avi
Format : AVI
Format/Info : Audio Video Interleave
Format profile : OpenDML
Format settings : rec
File size : 2.18 GiB
Duration : 2 h 18 min
Overall bit rate : 2 243 kb/s
Writing application : AVI-Mux GUI 1.17.8.3, Feb 16 201019:42:50
Video
ID : 0
Format : MPEG-4 Visual
Format profile : Advanced Simple@L5
Format settings, BVOP : 1
Format settings, QPel : No
Format settings, GMC : No warppoints
Format settings, Matrix : Custom
Codec ID : XVID
Codec ID/Hint : XviD
Duration : 2 h 18 min
Bit rate : 1 790 kb/s
Width : 720 pixels
Height : 304 pixels
Display aspect ratio : 2.35:1
Frame rate : 23.976 (24000/1001) FPS
Color space : YUV
Chroma subsampling : 4:2:0
Bit depth : 8 bits
Scan type : Progressive
Compression mode : Lossy
Bits/(Pixel*Frame) : 0.341
Stream size : 1.74 GiB (80%)
Writing library : XviD 73
Audio
ID : 1
Format : AC-3
Format/Info : Audio Coding 3
Format settings, Endianness : Big
Codec ID : 2000
Duration : 2 h 18 min
Bit rate mode : Constant
Bit rate : 448 kb/s
Channel(s) : 6 channels
Channel positions : Front: L C R, Side: L R, LFE
Sampling rate : 48.0 kHz
Frame rate : 31.250 FPS (1536 spf)
Bit depth : 16 bits
Compression mode : Lossy
Stream size : 445 MiB (20%)
Alignment : Aligned on interleaves
Interleave, duration : 64 ms (1.53 video frames)
Interleave, preload duration : 192 ms
Title : 448
Service kind : Complete Main
Скриншоты:

[Цитировать]

Торрент файл перезалит: Лицензия

[Цитировать]



Показать сообщения:    

Текущее время: 24-Сен 03:34

Часовой пояс: UTC + 6


Вы не можете начинать темы
Вы не можете отвечать на сообщения
Вы не можете редактировать свои сообщения
Вы не можете удалять свои сообщения
Вы не можете голосовать в опросах
Вы не можете прикреплять файлы к сообщениям
Вы не можете скачивать файлы

!ВНИМАНИЕ!
Сайт не предоставляет электронные версии произведений, а занимается лишь коллекционированием и каталогизацией ссылок, присылаемых и публикуемых на форуме нашими читателями. Если вы являетесь правообладателем какого-либо представленного материала и не желаете, чтобы ссылка на него находилась в нашем каталоге, свяжитесь с нами, и мы незамедлительно удалим ее. Файлы для обмена на трекере предоставлены пользователями сайта, и администрация не несет ответственности за их содержание. Просьба не заливать файлы, защищенные авторскими правами, а также файлы нелегального содержания!