[ Сегодня идет свободное скачивание без начисления Download ]


Статистика раздачи
Буду качать: [ 1 ]
Скачал: [ 20 ]
 
   
 
 
 
 
Призрачная красота / Collateral Beauty
«Все мы связаны»
Год выпуска: 2016
Страна: США
Производство: Anonymous Content, Likely Story, Overbrook Entertainment, Palm-Star Entertainment, Village Roadshow Pictures
Жанр: Драма
Режиссёр: Дэвид Фрэнкел
В ролях: Уилл Смит, Эдвард Нортон, Кейт Уинслет, Майкл Пенья, Хелен Миррен, Наоми Харрис, Кира Найтли, Джейкоб Латимор, Энн Дауд, Лиза Колон-Зайас
Перевод: Профессиональный (полное дублирование) [iTunes]+ Оригинал (английский)
Субтитры: Русские, Английские
Описание: Главный герой работает в рекламном агентстве Нью-Йорка. Не так давно в его личной жизни произошла трагедия, ввергнувшая его в тяжелейшую депрессию. Коллеги пытаются помочь и разрабатывают нетрадиционный план по возвращению друга обратно на твёрдую почву, однако план срабатывает неожиданным образом.

Качество: BDRip 720p
Продолжительность: 01:36:37
Формат: MKV
Видео кодек: AVC
Аудио кодек: AС3, DTS
Видео: 1280x534 (2.40:1), 23.976 fps, AVC ~ 4 944 kbps avg, 0.302 bit/pixel
Аудио#1: 48 kHz, AC3, 6 ch, ~ 384.00 kbps avg (Rus)
Аудио#2: 48 kHz, DTS, 6 ch, ~ 1509.00 kbps avg (Eng)
Дата премьеры (мир): 12 декабря 2016
Дата премьеры (РФ): 15 декабря 2016, «Каро-Премьер»

MI

General
Unique ID                   : 215392318567223019342111254268081924268 (0xA20B0D36710469D4BB7D4B7C953CE8AC)
Complete name               : G:\Video\Collateral.Beauty.2016.D.BDRip.720p.ExKinoRay.mkv
Format                      : Matroska
Format version              : Version 4 / Version 2
File size                   : 4.62 GiB
Duration                    : 1 h 36 min
Overall bit rate            : 6 840 kb/s
Encoded date                : UTC 2017-03-01 15:23:45
Writing application         : mkvmerge v8.3.0 ('Over the Horizon') 64bit
Writing library             : libebml v1.3.1 + libmatroska v1.4.2
Cover                       : Yes
Attachments                 : cover.jpg
Video
ID                          : 1
Format                      : AVC
Format/Info                 : Advanced Video Codec
Format profile              : High@L4.1
Format settings, CABAC      : Yes
Format settings, ReFrames   : 12 frames
Codec ID                    : V_MPEG4/ISO/AVC
Duration                    : 1 h 36 min
Bit rate                    : 4 944 kb/s
Width                       : 1 280 pixels
Height                      : 534 pixels
Display aspect ratio        : 2.40:1
Frame rate mode             : Constant
Frame rate                  : 23.976 (24000/1001) FPS
Color space                 : YUV
Chroma subsampling          : 4:2:0
Bit depth                   : 8 bits
Scan type                   : Progressive
Bits/(Pixel*Frame)          : 0.302
Stream size                 : 3.34 GiB (72%)
Writing library             : x264 core 148 r2744kMod b97ae06
Encoding settings           : cabac=1 / ref=12 / deblock=1:-3:-3 / analyse=0x3:0x133 / me=umh / subme=11 / psy=1 / fade_compensate=0.00 / psy_rd=1.10:0.00 / mixed_ref=1 / me_range=48 / chroma_me=1 / trellis=2 / 8x8dct=1 / cqm=0 / deadzone=21,11 / fast_pskip=0 / chroma_qp_offset=-2 / threads=12 / lookahead_threads=2 / sliced_threads=0 / nr=0 / decimate=0 / interlaced=0 / bluray_compat=0 / constrained_intra=0 / bframes=8 / b_pyramid=2 / b_adapt=2 / b_bias=0 / direct=3 / weightb=1 / open_gop=0 / weightp=2 / keyint=240 / keyint_min=24 / scenecut=40 / intra_refresh=0 / rc_lookahead=60 / rc=crf / mbtree=0 / crf=17.0000 / qcomp=0.70 / qpmin=0 / qpmax=69 / qpstep=4 / vbv_maxrate=50000 / vbv_bufsize=30000 / crf_max=0.0 / nal_hrd=none / filler=0 / ip_ratio=1.25 / pb_ratio=1.20 / aq=3:0.80
Language                    : English
Default                     : Yes
Forced                      : No
Audio #1
ID                          : 2
Format                      : AC-3
Format/Info                 : Audio Coding 3
Mode extension              : CM (complete main)
Format settings, Endianness : Big
Codec ID                    : A_AC3
Duration                    : 1 h 36 min
Bit rate mode               : Constant
Bit rate                    : 384 kb/s
Channel(s)                  : 6 channels
Channel positions           : Front: L C R, Side: L R, LFE
Sampling rate               : 48.0 kHz
Frame rate                  : 31.250 FPS (1536 spf)
Bit depth                   : 16 bits
Compression mode            : Lossy
Stream size                 : 265 MiB (6%)
Title                       : iTunes
Language                    : Russian
Default                     : Yes
Forced                      : No
Audio #2
ID                          : 3
Format                      : DTS
Format/Info                 : Digital Theater Systems
Mode                        : 16
Format settings, Endianness : Big
Codec ID                    : A_DTS
Duration                    : 1 h 36 min
Bit rate mode               : Constant
Bit rate                    : 1 509 kb/s
Channel(s)                  : 6 channels
Channel positions           : Front: L C R, Side: L R, LFE
Sampling rate               : 48.0 kHz
Frame rate                  : 93.750 FPS (512 spf)
Bit depth                   : 24 bits
Compression mode            : Lossy
Stream size                 : 1.02 GiB (22%)
Title                       : Original
Language                    : English
Default                     : No
Forced                      : No
Text #1
ID                          : 4
Format                      : UTF-8
Codec ID                    : S_TEXT/UTF8
Codec ID/Info               : UTF-8 Plain Text
Duration                    : 1 h 22 min
Bit rate                    : 1 b/s
Count of elements           : 15
Stream size                 : 861 Bytes (0%)
Title                       : Forced
Language                    : Russian
Default                     : Yes
Forced                      : No
Text #2
ID                          : 5
Format                      : UTF-8
Codec ID                    : S_TEXT/UTF8
Codec ID/Info               : UTF-8 Plain Text
Duration                    : 1 h 35 min
Bit rate                    : 98 b/s
Count of elements           : 1214
Stream size                 : 69.0 KiB (0%)
Title                       : Full
Language                    : Russian
Default                     : No
Forced                      : No
Text #3
ID                          : 6
Format                      : UTF-8
Codec ID                    : S_TEXT/UTF8
Codec ID/Info               : UTF-8 Plain Text
Duration                    : 1 h 30 min
Bit rate                    : 65 b/s
Count of elements           : 1449
Stream size                 : 43.9 KiB (0%)
Title                       : Full
Language                    : English
Default                     : No
Forced                      : No
Text #4
ID                          : 7
Format                      : UTF-8
Codec ID                    : S_TEXT/UTF8
Codec ID/Info               : UTF-8 Plain Text
Duration                    : 1 h 30 min
Bit rate                    : 69 b/s
Count of elements           : 1515
Stream size                 : 46.2 KiB (0%)
Title                       : SDH
Language                    : English
Default                     : No
Forced                      : No
Text #5
ID                          : 8
Format                      : UTF-8
Codec ID                    : S_TEXT/UTF8
Codec ID/Info               : UTF-8 Plain Text
Duration                    : 1 h 30 min
Bit rate                    : 74 b/s
Count of elements           : 1518
Stream size                 : 49.7 KiB (0%)
Title                       : SDH [Colored]
Language                    : English
Default                     : No
Forced                      : No
Menu
00:00:00.000                : en:00:00:00.000
00:10:20.078                : en:00:10:20.078
00:21:30.414                : en:00:21:30.414
00:33:57.118                : en:00:33:57.118
00:42:43.311                : en:00:42:43.311
00:53:07.184                : en:00:53:07.184
01:01:04.327                : en:01:01:04.327
01:08:55.048                : en:01:08:55.048
01:22:15.931                : en:01:22:15.931
01:33:09.626                : en:01:33:09.626
Скриншоты:

[Цитировать]

По ходу интересный фильм....

[Цитировать]



Показать сообщения:    

Текущее время: 23-Ноя 03:51

Часовой пояс: UTC + 6


Вы не можете начинать темы
Вы не можете отвечать на сообщения
Вы не можете редактировать свои сообщения
Вы не можете удалять свои сообщения
Вы не можете голосовать в опросах
Вы не можете прикреплять файлы к сообщениям
Вы не можете скачивать файлы

!ВНИМАНИЕ!
Сайт не предоставляет электронные версии произведений, а занимается лишь коллекционированием и каталогизацией ссылок, присылаемых и публикуемых на форуме нашими читателями. Если вы являетесь правообладателем какого-либо представленного материала и не желаете, чтобы ссылка на него находилась в нашем каталоге, свяжитесь с нами, и мы незамедлительно удалим ее. Файлы для обмена на трекере предоставлены пользователями сайта, и администрация не несет ответственности за их содержание. Просьба не заливать файлы, защищенные авторскими правами, а также файлы нелегального содержания!