[ Сегодня идет свободное скачивание без начисления Download ]


Статистика раздачи
Нет
 
   
 
 
 
 
Isgaard - Whiteout (2016) -
Жанр: New-Age, Сrossover, Pop-art, Progressive
Издание: Art Of Music
Источник: bandcamp
Продолжительность: 00:58:00
Кодек: FLAC
Тип рипа: tracks + .cue
Треклист:
01. Prologue (3:28)
02. No Man's Land (5:48)
03. Shine On (4:54)
04. You Didn't Fall (4:35)
05. Silent Stranger (4:24)
06. Tikdabra (5:38)
07. Silva (4:32)
08. Fly Away (5:32)
09. Into The Great Wide Open (4:13)
10. Whiteout. Part I: The Book (4:04)
11. Whiteout. Part Ii: Shifting World (4:28)
12. Whiteout. Part Iii: Whiteout (5:10)
13. Shine On (Reprise) (1:15)

DRM log:

foobar2000 1.3.14 / Dynamic Range Meter 1.1.1
log date: 2017-03-02 07:48:34
--------------------------------------------------------------------------------
Analyzed: Isgaard / Whiteout
--------------------------------------------------------------------------------
DR Peak RMS Duration Track
--------------------------------------------------------------------------------
DR9 -0.10 dB -13.21 dB 3:28 01-Prologue
DR7 0.00 dB -11.21 dB 5:48 02-No Man's Land
DR8 0.00 dB -10.07 dB 4:54 03-Shine On
DR7 -0.50 dB -8.89 dB 4:35 04-You Didn't Fall
DR8 0.00 dB -12.70 dB 4:24 05-Silent Stranger
DR8 -0.10 dB -11.16 dB 5:38 06-Tikdabra
DR8 -1.10 dB -11.71 dB 4:32 07-Silva
DR8 0.00 dB -10.65 dB 5:32 08-Fly Away
DR11 -3.10 dB -18.62 dB 4:13 09-Into The Great Wide Open
DR10 -0.45 dB -13.50 dB 4:04 10-Whiteout. Part I: The Book
DR8 -0.10 dB -10.52 dB 4:28 11-Whiteout. Part Ii: Shifting World
DR7 -0.10 dB -12.38 dB 5:10 12-Whiteout. Part Iii: Whiteout
DR10 -3.72 dB -18.04 dB 1:15 13-Shine On (Reprise)
--------------------------------------------------------------------------------
Number of tracks: 13
Official DR value: DR8
Samplerate: 44100 Hz
Channels: 2
Bits per sample: 16
Bitrate: 695 kbps
Codec: FLAC
================================================================================

Cue Sheet (.cue):

REM GENRE "Vocal, Downtempo"
REM DATE 2016
REM COMMENT "CUE Corrector v. 7.6.3 / b. 598 (May 12, 2016)"
PERFORMER Isgaard
TITLE Whiteout
FILE "01. Prologue.flac" WAVE
TRACK 1 AUDIO
TITLE Prologue
PERFORMER Isgaard
INDEX 01 00:00:00
FILE "02. No Man's Land.flac" WAVE
TRACK 2 AUDIO
TITLE "No Man's Land"
PERFORMER Isgaard
INDEX 01 00:00:00
FILE "03. Shine On.flac" WAVE
TRACK 3 AUDIO
TITLE "Shine On"
PERFORMER Isgaard
INDEX 01 00:00:00
FILE "04. You Didn't Fall.flac" WAVE
TRACK 4 AUDIO
TITLE "You Didn't Fall"
PERFORMER Isgaard
INDEX 01 00:00:00
FILE "05. Silent Stranger.flac" WAVE
TRACK 5 AUDIO
TITLE "Silent Stranger"
PERFORMER Isgaard
INDEX 01 00:00:00
FILE "06. Tikdabra.flac" WAVE
TRACK 6 AUDIO
TITLE Tikdabra
PERFORMER Isgaard
INDEX 01 00:00:00
FILE "07. Silva.flac" WAVE
TRACK 7 AUDIO
TITLE Silva
PERFORMER Isgaard
INDEX 01 00:00:00
FILE "08. Fly Away.flac" WAVE
TRACK 8 AUDIO
TITLE "Fly Away"
PERFORMER Isgaard
INDEX 01 00:00:00
FILE "09. Into the Great Wide Open.flac" WAVE
TRACK 9 AUDIO
TITLE "Into The Great Wide Open"
PERFORMER Isgaard
INDEX 01 00:00:00
FILE "10. Whiteout. Part I- The Book.flac" WAVE
TRACK 10 AUDIO
TITLE "Whiteout. Part I: The Book"
PERFORMER Isgaard
INDEX 01 00:00:00
FILE "11. Whiteout. Part II- Shifting World.flac" WAVE
TRACK 11 AUDIO
TITLE "Whiteout. Part Ii: Shifting World"
PERFORMER Isgaard
INDEX 01 00:00:00
FILE "12. Whiteout. Part III- Whiteout.flac" WAVE
TRACK 12 AUDIO
TITLE "Whiteout. Part Iii: Whiteout"
PERFORMER Isgaard
INDEX 01 00:00:00
FILE "13. Shine On (Reprise).flac" WAVE
TRACK 13 AUDIO
TITLE "Shine On (Reprise)"
PERFORMER Isgaard
INDEX 01 00:00:00

Отчёт auCDtect Task manager:

-----------------------
DON'T MODIFY THIS FILE
-----------------------
PERFORMER: auCDtect Task Manager, ver. 1.6.0 RC1 build 1.6.0.1
Copyright (c) 2008-2010 y-soft. All rights reserved
http://y-soft.org
ANALYZER: auCDtect: CD records authenticity detector, version 0.8.2
Copyright (c) 2004 Oleg Berngardt. All rights reserved.
Copyright (c) 2004 Alexander Djourik. All rights reserved.
FILE: 13. Shine On (Reprise).flac
Size: 6672493 Hash: 8589269E555BF756FBD2236DA233B476 Accuracy: -m0
Conclusion: CDDA 100%
Signature: D04618250A908EA08A10BE63D8D19C33433FD45B
FILE: 12. Whiteout. Part III- Whiteout.flac
Size: 29967350 Hash: C238050933CB0926C106A9BCAE82CB23 Accuracy: -m0
Conclusion: CDDA 100%
Signature: 647E381C928267508D67D75EA092233A9DB2DC28
FILE: 11. Whiteout. Part II- Shifting World.flac
Size: 26998421 Hash: 8FD7465977EBA502FB1C8C227947EFAC Accuracy: -m0
Conclusion: CDDA 100%
Signature: 3554A2C0DA946B4F119BFADFE3D60C1723396D74
FILE: 10. Whiteout. Part I- The Book.flac
Size: 24544941 Hash: 2E28509AA1F2310532345D47E1C62E14 Accuracy: -m0
Conclusion: CDDA 99%
Signature: C85936DABF29B318EBB1CC1D00416B3980A075C8
FILE: 09. Into the Great Wide Open.flac
Size: 21999466 Hash: 4B0951FD3890105C1F26729A02B5C656 Accuracy: -m0
Conclusion: CDDA 100%
Signature: 148A8BFB459F68610782FCD6697E283451CF2813
FILE: 08. Fly Away.flac
Size: 32117654 Hash: 73EAB9955F8735F69CB67783B87010C5 Accuracy: -m0
Conclusion: CDDA 100%
Signature: 5D73FB5566B82E2405D3D052B656CED0A3B0138A
FILE: 07. Silva.flac
Size: 27520319 Hash: A934F1B349DEC4171814698197588707 Accuracy: -m0
Conclusion: CDDA 100%
Signature: 758C6393B9D3DD34AF617A007AFC4A206FC08307
FILE: 06. Tikdabra.flac
Size: 33943438 Hash: 445BDD4D25ABED98BB0358D821FFAB22 Accuracy: -m0
Conclusion: CDDA 100%
Signature: 99F652A075DA638B8257E5A17B449070BB72B754
FILE: 05. Silent Stranger.flac
Size: 25709181 Hash: 0844AC92A54C2CFF0D80A5A39BA43D6F Accuracy: -m0
Conclusion: CDDA 100%
Signature: DFCA368E48FE8E5A38A9F6C75D2ABC8D469D1AE6
FILE: 04. You Didn't Fall.flac
Size: 31237824 Hash: A693CFB645860E685D474202E0636DE9 Accuracy: -m0
Conclusion: CDDA 100%
Signature: B5F4135FFDC88FA6A2DB97649174BD5C186BC64A
FILE: 03. Shine On.flac
Size: 29536250 Hash: FDB5F43C07E8EBC395F9DE20FDA0519C Accuracy: -m0
Conclusion: CDDA 100%
Signature: ACB31F04056990D5081A715B30427EB80CD82658
FILE: 02. No Man's Land.flac
Size: 34240476 Hash: 5DEF48B393EEB2A725B42085A8CFDF57 Accuracy: -m0
Conclusion: CDDA 100%
Signature: 8AC3714D91DF210B88CCAF82EA772596CA34FE06
FILE: 01. Prologue.flac
Size: 17847100 Hash: 1FD0638D5252142331FF0336C572F485 Accuracy: -m0
Conclusion: CDDA 100%
Signature: 40641CE37520948B5A5604C2752096C2F00F793A
http://www.youtube.com/watch?v=3u003uxfn1g

[Цитировать]



Показать сообщения:    

Текущее время: 23-Окт 18:32

Часовой пояс: UTC + 6


Вы не можете начинать темы
Вы не можете отвечать на сообщения
Вы не можете редактировать свои сообщения
Вы не можете удалять свои сообщения
Вы не можете голосовать в опросах
Вы не можете прикреплять файлы к сообщениям
Вы не можете скачивать файлы

!ВНИМАНИЕ!
Сайт не предоставляет электронные версии произведений, а занимается лишь коллекционированием и каталогизацией ссылок, присылаемых и публикуемых на форуме нашими читателями. Если вы являетесь правообладателем какого-либо представленного материала и не желаете, чтобы ссылка на него находилась в нашем каталоге, свяжитесь с нами, и мы незамедлительно удалим ее. Файлы для обмена на трекере предоставлены пользователями сайта, и администрация не несет ответственности за их содержание. Просьба не заливать файлы, защищенные авторскими правами, а также файлы нелегального содержания!