[ Сегодня идет свободное скачивание без начисления Download ]


Статистика раздачи
Скачал: [ 12 ]
 
   
 
 
 
 
Кредо убийцы / Assassin's Creed
«Welcome to the Spanish Inquisition»
-- Год выпуска: 2016
Страна: Великобритания, Франция, Гонконг, США, Тайвань, Мальта, Канада
Производство: Alpha Pictures, CatchPlay, DMC Film
Жанр: Фантастика, фэнтези, боевик, приключения
Режиссёр: Джастин Курзель
В ролях: Майкл Фассбендер, Марион Котийяр, Джереми Айронс, Брендан Глисон, Шарлотта Рэмплинг, Майкл Кеннет Уильямс, Дени Меноше, Ариана Лабед, Халид Абдалла, Эсси Дэвис
Перевод: Профессиональный (полное дублирование) [Чистый звук]
Субтитры: Корейские, вшитые не отключаемые
Описание: Благодаря революционным технологиям, позволяющим вызвать в памяти воспоминания прежних поколений, Каллум Линч проживает приключения своего предка Агилара в Испании 15-го века. Каллум узнает, что является потомком членов загадочного тайного общества ассасинов. Накопив невероятные знания и навыки, он вступает в противостояние с могущественной и жестокой организацией тамплиеров в наши дни.

Доп. информация: Релиз с рекламой!
Формат: MKV
Качество: HDTV 1080p
Продолжительность: 01:55:17
Видео кодек: AVC
Аудио кодек: AС3
Видео: 1920x1080 (16:9), 29.970 fps, AVC ~ 5308 kbps avg, 0.19 bit/pixel
Аудио: AC3, 48 kHz, 2 ch, ~ 192.00 kbps avg
Дата премьеры (мир): 13 декабря 2016
Дата премьеры (РФ): 5 января 2017

MI

Общее
Уникальный идентификатор                 : 192135015600338168544900312973391746323 (0x908BDBA54C55412DA59C34FCF530D513)
Полное имя                               : D:\Кредо.убийцы.2016.WEBRip.[1080p].NNMClub.mkv
Формат                                   : Matroska
Версия формата                           : Version 4 / Version 2
Размер файла                             : 4,57 Гбайт
Продолжительность                        : 1 ч. 54 м.
Режим общего битрейта                    : Переменный
Общий поток                              : 5694 Кбит/сек
Дата кодирования                         : UTC 2017-03-03 18:30:39
Программа кодирования                    : mkvmerge v8.3.0 ('Over the Horizon') 64bit
Библиотека кодирования                   : libebml v1.3.1 + libmatroska v1.4.2
Видео
Идентификатор                            : 1
Формат                                   : AVC
Формат/Информация                        : Advanced Video Codec
Профиль формата                          : High@L4.1
Параметр CABAC формата                   : Да
Параметр ReFrames формата                : 4 кадра
Идентификатор кодека                     : V_MPEG4/ISO/AVC
Продолжительность                        : 1 ч. 54 м.
Вид битрейта                             : Переменный
Битрейт                                  : 5308 Кбит/сек
Максимальный битрейт                     : 6000 Кбит/сек
Ширина                                   : 1920 пикселей
Высота                                   : 1080 пикселей
Соотношение сторон                       : 16:9
Режим частоты кадров                     : Постоянный
Частота кадров                           : 29,970 (30000/1001) кадров/сек
Стандарт вещания                         : Component
Цветовое пространство                    : YUV
Субдискретизация насыщенности            : 4:2:0
Битовая глубина                          : 8 бит
Тип развёртки                            : Прогрессивная
Бит/(Пиксели*Кадры)                      : 0.085
Размер потока                            : 4,26 Гбайт (93%)
Язык                                     : English
Default                                  : Да
Forced                                   : Нет
Цветовой диапазон                        : Limited
Основные цвета                           : BT.709
Характеристики трансфера                 : BT.709
Коэффициенты матрицы                     : BT.709
Аудио
Идентификатор                            : 2
Формат                                   : AC-3
Формат/Информация                        : Audio Coding 3
Расширение режима                        : CM (complete main)
Параметр Endianness формата              : Big
Идентификатор кодека                     : A_AC3
Продолжительность                        : 1 ч. 54 м.
Вид битрейта                             : Постоянный
Битрейт                                  : 384 Кбит/сек
Каналы                                   : 2 канала
Расположение каналов                     : Front: L R
Частота                                  : 48,0 КГц
Частота кадров                           : 31,250 кадров/сек (1536 spf)
Метод сжатия                             : С потерями
Задержка видео                           : 30 мс.
Размер потока                            : 315 Мбайт (7%)
Заголовок                                : Line
Язык                                     : Russian
Default                                  : Да
Forced                                   : Нет

Скриншоты

[Цитировать]



Показать сообщения:    

Текущее время: 25-Ноя 09:30

Часовой пояс: UTC + 6


Вы не можете начинать темы
Вы не можете отвечать на сообщения
Вы не можете редактировать свои сообщения
Вы не можете удалять свои сообщения
Вы не можете голосовать в опросах
Вы не можете прикреплять файлы к сообщениям
Вы не можете скачивать файлы

!ВНИМАНИЕ!
Сайт не предоставляет электронные версии произведений, а занимается лишь коллекционированием и каталогизацией ссылок, присылаемых и публикуемых на форуме нашими читателями. Если вы являетесь правообладателем какого-либо представленного материала и не желаете, чтобы ссылка на него находилась в нашем каталоге, свяжитесь с нами, и мы незамедлительно удалим ее. Файлы для обмена на трекере предоставлены пользователями сайта, и администрация не несет ответственности за их содержание. Просьба не заливать файлы, защищенные авторскими правами, а также файлы нелегального содержания!