[ Сегодня идет свободное скачивание без начисления Download ]


Статистика раздачи
Качаю: [ 1 ]
Скачал: [ 31 ]
 
   
 
 
 
 
Новогодний корпоратив / Office Christmas Party Год выпуска: 2016
Страна: США
Производство: Bluegrass Films, DreamWorks SKG, FROSCH Entertainment, Paramount Pictures, Reliance Entertainment
Жанр: Комедия
Режиссёры: Джош Гордон, Уилл Спек
В ролях: Джейсон Бейтмен, Оливия Манн, ТиДжей Миллер, Дженнифер Энистон, Кейт МакКиннон, Кортни Б. Вэнс, Джиллиан Белл, Роб Кордри, Ванесса Байер, Рэндолл Парк
Перевод: Профессиональный (полное дублирование) [iTunes]
Субтитры: Русские форсированные (отдельно)
Описание: Когда сестра героя, вице-президент компании, угрожает брату закрыть его филиал, он устраивает грандиозную рождественскую вечеринку, чтобы заполучить большого клиента и спасти фирму. Однако праздник выходит из-под контроля..

Качество: BDRip
Продолжительность: 01:45:08
Формат: AVI
Видео кодек: XviD
Аудио кодек: AС3
Видео: 720x304 (2.35:1), 24.000 fps, XviD ~1 532 kbps avg, 0.292 bit/pixel
Аудио: AC 3, 48 kHz, 6 ch, ~384.00 kbps avg
Дата премьеры (мир): 7 декабря 2016
Дата премьеры (РФ): 8 декабря 2016

MediaInfo

General
Complete name : Office.Christmas.Party.2016.BDRip.1.42Gb.MegaPeer\Office.Christmas.Party.2016.BDRip.1.42Gb.MegaPeer.avi
Format : AVI
Format/Info : Audio Video Interleave
File size : 1.41 GiB
Duration : 1h 45mn
Overall bit rate : 1 923 Kbps
Video
ID : 0
Format : MPEG-4 Visual
Format profile : Advanced Simple@L5
Format settings, BVOP : 1
Format settings, QPel : No
Format settings, GMC : No warppoints
Format settings, Matrix : Custom
Codec ID : XVID
Codec ID/Hint : XviD
Duration : 1h 45mn
Bit rate : 1 532 Kbps
Width : 720 pixels
Height : 304 pixels
Display aspect ratio : 2.35:1
Frame rate : 24.000 fps
Color space : YUV
Chroma subsampling : 4:2:0
Bit depth : 8 bits
Scan type : Progressive
Compression mode : Lossy
Bits/(Pixel*Frame) : 0.292
Stream size : 1.12 GiB (80%)
Writing library : XviD 73
Audio
ID : 1
Format : AC-3
Format/Info : Audio Coding 3
Mode extension : CM (complete main)
Format settings, Endianness : Big
Codec ID : 2000
Duration : 1h 45mn
Bit rate mode : Constant
Bit rate : 384 Kbps
Channel(s) : 6 channels
Channel positions : Front: L C R, Side: L R, LFE
Sampling rate : 48.0 KHz
Frame rate : 31.250 fps (1536 spf)
Compression mode : Lossy
Stream size : 289 MiB (20%)
Alignment : Aligned on interleaves
Interleave, duration : 64 ms (1.54 video frames)
Interleave, preload duration : 192 ms
Title : iTunes
Скриншоты:

[Цитировать]

Топик был перенесен из форума Новинки кинопроката 2016 в форум Комедия
Scorpio



Показать сообщения:    

Текущее время: 26-Сен 09:51

Часовой пояс: UTC + 6


Вы не можете начинать темы
Вы не можете отвечать на сообщения
Вы не можете редактировать свои сообщения
Вы не можете удалять свои сообщения
Вы не можете голосовать в опросах
Вы не можете прикреплять файлы к сообщениям
Вы не можете скачивать файлы

!ВНИМАНИЕ!
Сайт не предоставляет электронные версии произведений, а занимается лишь коллекционированием и каталогизацией ссылок, присылаемых и публикуемых на форуме нашими читателями. Если вы являетесь правообладателем какого-либо представленного материала и не желаете, чтобы ссылка на него находилась в нашем каталоге, свяжитесь с нами, и мы незамедлительно удалим ее. Файлы для обмена на трекере предоставлены пользователями сайта, и администрация не несет ответственности за их содержание. Просьба не заливать файлы, защищенные авторскими правами, а также файлы нелегального содержания!