[ Сегодня идет свободное скачивание без начисления Download ]


Статистика раздачи
Нет
 
   
 
 
 
 
Изгой-один: Звёздные войны. Истории / Rogue One
«Мятеж с надеждой в сердце»
Год выпуска: 2016
Страна: США, Великобритания
Производство: Allison Shearmur Productions, Black Hangar Studios, Lucasfilm Ltd., Walt Disney Studios Motion Pictures
Жанр: Фантастика, боевик, приключения
Режиссёр: Гарет Эдвардс
В ролях: Фелисити Джонс, Диего Луна, Алан Тьюдик, Донни Йен, Цзян Вэнь, Бен Мендельсон, Форест Уитакер, Риз Ахмед, Мадс Миккельсен, Джимми Смитс
Перевод: Профессиональный (полное дублирование) [iTunes] + Оригинал (английский)
Субтитры: Русские, английские
Описание: Сопротивление собирает отряд для выполнения особой миссии — надо выкрасть чертежи самого совершенного и смертоносного оружия Империи. Возглавляет бойцов неуправляемая и бесстрашная Джин Эрсо, у которой в этом самоубийственном задании есть и личные мотивы. Не всем суждено вернуться домой, но герои готовы к этому, ведь на кону судьба Галактики.

Качество: BDRip 720p
Продолжительность: 02:13:57
Формат: MKV
Видео кодек: AVC
Аудио кодек: AС3
Видео: 1280x536 (2.40:1); 23,976 fps; AVC; 6000 Kbps; 0.365 bpp
Аудио#1: AC 3, 48 kHz, 6 ch, ~384.00 kbps avg | Профессиональный (полное дублирование) [iTunes]
Аудио#2: DTS, 48 kHz, 6 ch, ~1509.00 kbps avg | Оригинал (английский)
Дата премьеры (мир): 10 декабря 2016
Дата премьеры (РФ): 15 декабря 2016

MediaInfo

General
Unique ID : 214336242293210664301972889927349065420 (0xA13FA8A1DF9C278A94A02D4556C656CC)
Complete name : Rogue.One.2016.BDRip.720p.ExKinoRay.mkv
Format : Matroska
Format version : Version 4 / Version 2
File size : 7.39 GiB
Duration : 2 h 14 min
Overall bit rate : 7 884 kb/s
Movie name : Rogue.One.2016.BluRay.1080p.x264.DTS-HD.MA.7.1-HDChina
Encoded date : UTC 2017-03-23 19:31:53
Writing application : mkvmerge v8.3.0 ('Over the Horizon') 64bit
Writing library : libebml v1.3.1 + libmatroska v1.4.2
Cover : Yes
Attachments : cover.jpg
Video
ID : 1
Format : AVC
Format/Info : Advanced Video Codec
Format profile : High@L4.1
Format settings, CABAC : Yes
Format settings, ReFrames : 12 frames
Codec ID : V_MPEG4/ISO/AVC
Duration : 2 h 13 min
Bit rate : 6 000 kb/s
Width : 1 280 pixels
Height : 536 pixels
Display aspect ratio : 2.40:1
Frame rate mode : Constant
Frame rate : 23.976 (23976/1000) FPS
Color space : YUV
Chroma subsampling : 4:2:0
Bit depth : 8 bits
Scan type : Progressive
Bits/(Pixel*Frame) : 0.365
Stream size : 5.61 GiB (76%)
Writing library : x264 core 146 r2538 121396c
Encoding settings : cabac=1 / ref=12 / deblock=1:-3:-3 / analyse=0x3:0x133 / me=umh / subme=11 / psy=1 / psy_rd=1.05:0.05 / mixed_ref=1 / me_range=32 / chroma_me=1 / trellis=2 / 8x8dct=1 / cqm=0 / deadzone=21,11 / fast_pskip=0 / chroma_qp_offset=-3 / threads=6 / lookahead_threads=1 / sliced_threads=0 / nr=0 / decimate=0 / interlaced=0 / bluray_compat=0 / constrained_intra=0 / bframes=8 / b_pyramid=2 / b_adapt=2 / b_bias=0 / direct=3 / weightb=1 / open_gop=0 / weightp=2 / keyint=240 / keyint_min=23 / scenecut=40 / intra_refresh=0 / rc_lookahead=50 / rc=2pass / mbtree=0 / bitrate=6000 / ratetol=1.0 / qcomp=0.60 / qpmin=0 / qpmax=69 / qpstep=4 / cplxblur=20.0 / qblur=0.5 / vbv_maxrate=50000 / vbv_bufsize=62500 / nal_hrd=none / filler=0 / ip_ratio=1.40 / pb_ratio=1.30 / aq=1:0.80
Language : English
Default : Yes
Forced : No
Audio #1
ID : 2
Format : AC-3
Format/Info : Audio Coding 3
Format settings, Endianness : Big
Codec ID : A_AC3
Duration : 2 h 14 min
Bit rate mode : Constant
Bit rate : 384 kb/s
Channel(s) : 6 channels
Channel positions : Front: L C R, Side: L R, LFE
Sampling rate : 48.0 kHz
Frame rate : 31.250 FPS (1536 spf)
Bit depth : 16 bits
Compression mode : Lossy
Stream size : 369 MiB (5%)
Title : iTunes
Language : Russian
Service kind : Complete Main
Default : Yes
Forced : No
Audio #2
ID : 3
Format : DTS
Format/Info : Digital Theater Systems
Mode : 16
Format settings, Endianness : Big
Codec ID : A_DTS
Duration : 2 h 13 min
Bit rate mode : Constant
Bit rate : 1 509 kb/s
Channel(s) : 6 channels
Channel positions : Front: L C R, Side: L R, LFE
Sampling rate : 48.0 kHz
Frame rate : 93.750 FPS (512 spf)
Bit depth : 24 bits
Compression mode : Lossy
Stream size : 1.41 GiB (19%)
Title : Original
Language : English
Default : No
Forced : No
Text #1
ID : 4
Format : UTF-8
Codec ID : S_TEXT/UTF8
Codec ID/Info : UTF-8 Plain Text
Duration : 25 min 37 s
Bit rate : 1 b/s
Count of elements : 9
Stream size : 318 Bytes (0%)
Title : Forced
Language : Russian
Default : Yes
Forced : No
Text #2
ID : 5
Format : UTF-8
Codec ID : S_TEXT/UTF8
Codec ID/Info : UTF-8 Plain Text
Duration : 2 h 4 min
Bit rate : 78 b/s
Count of elements : 1507
Stream size : 71.5 KiB (0%)
Title : Full
Language : Russian
Default : No
Forced : No
Text #3
ID : 6
Format : UTF-8
Codec ID : S_TEXT/UTF8
Codec ID/Info : UTF-8 Plain Text
Duration : 2 h 4 min
Bit rate : 46 b/s
Count of elements : 1559
Stream size : 42.0 KiB (0%)
Title : Full
Language : English
Default : No
Forced : No
Text #4
ID : 7
Format : UTF-8
Codec ID : S_TEXT/UTF8
Codec ID/Info : UTF-8 Plain Text
Duration : 2 h 5 min
Bit rate : 52 b/s
Count of elements : 1826
Stream size : 48.6 KiB (0%)
Title : SDH
Language : English
Default : No
Forced : No
Text #5
ID : 8
Format : UTF-8
Codec ID : S_TEXT/UTF8
Codec ID/Info : UTF-8 Plain Text
Duration : 2 h 6 min
Bit rate : 66 b/s
Count of elements : 1804
Stream size : 61.3 KiB (0%)
Title : SDH Colored
Language : English
Default : No
Forced : No
Menu
00:00:00.000 : en:"He's Come For Us"
00:02:34.654 : en:Unfinished Business
00:07:46.466 : en:Jyn in Prison
00:08:42.814 : en:Ring of Kafrene
00:11:04.622 : en:An Urgent Message
00:12:21.199 : en:Wobani Prison Break
00:13:41.154 : en:Rebel Interrogation
00:17:19.914 : en:Mission Departure
00:20:09.542 : en:Saw Gerrera
00:21:54.772 : en:Krennic and Tarkin
00:23:47.092 : en:Jyn's Dream
00:24:31.386 : en:Scouting Jedha City
00:26:53.445 : en:Bor Gullet
00:27:46.623 : en:Guardians of The Whills
00:30:37.294 : en:Holy City Ambush
00:33:53.406 : en:"Let them Pass"
00:37:11.271 : en:Saw's Catacombs
00:42:30.089 : en:Galen's Message
00:47:16.125 : en:Jedha Escape
00:51:04.144 : en:Tarkin Commands
00:52:23.724 : en:Race to Eadu
00:55:53.266 : en:Eadu Crash
00:59:48.251 : en:Scouting Eadu
01:02:07.807 : en:Krennic and Galen
01:05:25.505 : en:Attack on Eadu
01:10:24.095 : en:Eadu Aftermath
01:12:49.532 : en:Mustafar
01:16:28.459 : en:Jyn Before the Council
01:19:04.323 : en:"May the Force Be With Us"
01:21:55.160 : en:Rogue One Launches
01:23:25.667 : en:Scarif Gate
01:25:58.987 : en:10 Men Like 100
01:27:34.958 : en:Imperial Inspection
01:29:57.308 : en:Ground Forces
01:31:53.841 : en:The Battle Begins
01:34:18.736 : en:Scrambling the Rebel Fleet
01:36:07.512 : en:Sowing Confusion
01:37:48.237 : en:Rebel Reinforcements
01:40:27.605 : en:Beach Battle
01:42:44.074 : en:Master Switch
01:45:26.779 : en:Stardust
01:47:55.010 : en:Data Vault
01:50:31.416 : en:Sacrifices
01:53:28.885 : en:"We Have the Plans"
01:55:46.272 : en:Final Confrontation
01:59:23.448 : en:Transmission Received
02:01:11.347 : en:Fire When Ready
02:03:15.596 : en:Hope
02:05:42.118 : en:End Credits

[Цитировать]

А менее весомого рилиза не ожидается?

[Цитировать]

107281А менее весомого рилиза не ожидается?
Поиск в помощь.

[Цитировать]



Показать сообщения:    

Текущее время: 16-Авг 10:16

Часовой пояс: UTC + 6


Вы не можете начинать темы
Вы не можете отвечать на сообщения
Вы не можете редактировать свои сообщения
Вы не можете удалять свои сообщения
Вы не можете голосовать в опросах
Вы не можете прикреплять файлы к сообщениям
Вы не можете скачивать файлы

!ВНИМАНИЕ!
Сайт не предоставляет электронные версии произведений, а занимается лишь коллекционированием и каталогизацией ссылок, присылаемых и публикуемых на форуме нашими читателями. Если вы являетесь правообладателем какого-либо представленного материала и не желаете, чтобы ссылка на него находилась в нашем каталоге, свяжитесь с нами, и мы незамедлительно удалим ее. Файлы для обмена на трекере предоставлены пользователями сайта, и администрация не несет ответственности за их содержание. Просьба не заливать файлы, защищенные авторскими правами, а также файлы нелегального содержания!