[ Сегодня идет свободное скачивание без начисления Download ]


Статистика раздачи
Скачал: [ 18 ]
 
   
 
 
 
 
Изгой-один: Звёздные войны. Истории / Rogue One
«Мятеж с надеждой в сердце»
Год выпуска: 2016
Страна: США, Великобритания
Производство: Allison Shearmur Productions, Black Hangar Studios, Lucasfilm Ltd., Walt Disney Studios Motion Pictures
Жанр: Фантастика, боевик, приключения
Режиссёр: Гарет Эдвардс
В ролях: Фелисити Джонс, Диего Луна, Алан Тьюдик, Донни Йен, Цзян Вэнь, Бен Мендельсон, Форест Уитакер, Риз Ахмед, Мадс Миккельсен, Джимми Смитс
Перевод: Профессиональный (полное дублирование) [iTunes]
Субтитры: Русские, английские
Описание: Сопротивление собирает отряд для выполнения особой миссии — надо выкрасть чертежи самого совершенного и смертоносного оружия Империи. Возглавляет бойцов неуправляемая и бесстрашная Джин Эрсо, у которой в этом самоубийственном задании есть и личные мотивы. Не всем суждено вернуться домой, но герои готовы к этому, ведь на кону судьба Галактики.

Качество: BDRip-AVC
Продолжительность: 02:13:57
Формат: MKV
Видео кодек: AVC
Аудио кодек: AС3
Видео: 720x302 (2.40:1); 23,976 fps; AVC; 1111 Kbps; 0.213 bpp
Аудио#1: AC 3, 48 kHz, 6 ch, ~384.00 kbps avg | Профессиональный (полное дублирование) [iTunes]
Дата премьеры (мир): 10 декабря 2016
Дата премьеры (РФ): 15 декабря 2016

MediaInfo

Общее
Уникальный идентификатор : 185169714676634767906032987904328394502 (0x8B4E63CBD4481B2EB1202ECD42A8E706)
Полное имя : D:Rogue.One.A.Star.Wars.Story.2016.BDRip(AVC).OlLanDGroup.mkv
Формат : Matroska
Версия формата : Version 2
Размер файла : 1,40 Гбайт
Продолжительность : 2 ч. 14 м.
Общий поток : 1495 Кбит/сек
Название фильма : Rogue.One.A.Star.Wars.Story.2016 #TorpedoUK#
Дата кодирования : UTC 2017-03-23 19:41:06
Программа кодирования : mkvmerge v7.8.0 ('River Man') 32bit built on Apr 3 2015 12:11:22
Библиотека кодирования : libebml v1.3.1 + libmatroska v1.4.2
Видео
Идентификатор : 1
Формат : AVC
Формат/Информация : Advanced Video Codec
Профиль формата : High@L4.1
Параметр CABAC формата : Да
Параметр ReFrames формата : 10 кадров
Идентификатор кодека : V_MPEG4/ISO/AVC
Продолжительность : 2 ч. 14 м.
Битрейт : 1111 Кбит/сек
Ширина : 720 пикселей
Высота : 302 пикселя
Соотношение сторон : 2,40:1
Режим частоты кадров : Постоянный
Частота кадров : 23,976 (24000/1001) кадра/сек
Цветовое пространство : YUV
Субдискретизация насыщенности : 4:2:0
Битовая глубина : 8 бит
Тип развёртки : Прогрессивная
Бит/(Пиксели*Кадры) : 0.213
Размер потока : 1,01 Гбайт (72%)
Библиотека кодирования : x264 core 146 r2538 121396c
Настройки программы : cabac=1 / ref=10 / deblock=1:-3:-3 / analyse=0x3:0x133 / me=umh / subme=11 / psy=1 / psy_rd=1.00:0.07 / mixed_ref=1 / me_range=48 / chroma_me=1 / trellis=2 / 8x8dct=1 / cqm=0 / deadzone=21,11 / fast_pskip=0 / chroma_qp_offset=-3 / threads=6 / lookahead_threads=1 / sliced_threads=0 / nr=0 / decimate=0 / interlaced=0 / bluray_compat=0 / constrained_intra=0 / bframes=10 / b_pyramid=2 / b_adapt=2 / b_bias=0 / direct=3 / weightb=1 / open_gop=0 / weightp=2 / keyint=240 / keyint_min=23 / scenecut=40 / intra_refresh=0 / rc_lookahead=40 / rc=2pass / mbtree=0 / bitrate=1111 / ratetol=1.0 / qcomp=0.60 / qpmin=0 / qpmax=69 / qpstep=4 / cplxblur=20.0 / qblur=0.5 / vbv_maxrate=50000 / vbv_bufsize=62500 / nal_hrd=none / filler=0 / ip_ratio=1.40 / pb_ratio=1.30 / aq=1:1.00
Default : Да
Forced : Нет
Цветовой диапазон : Limited
Основные цвета : BT.709
Характеристики трансфера : BT.709
Коэффициенты матрицы : BT.709
Аудио
Идентификатор : 2
Формат : AC-3
Формат/Информация : Audio Coding 3
Расширение режима : CM (complete main)
Параметр Endianness формата : Big
Идентификатор кодека : A_AC3
Продолжительность : 2 ч. 14 м.
Вид битрейта : Постоянный
Битрейт : 384 Кбит/сек
Каналы : 6 каналов
Расположение каналов : Front: L C R, Side: L R, LFE
Частота : 48,0 КГц
Частота кадров : 31,250 кадров/сек (1536 spf)
Битовая глубина : 16 бит
Метод сжатия : С потерями
Размер потока : 369 Мбайт (26%)
Заголовок : iTunes
Язык : Russian
Default : Да
Forced : Нет
Текст #1
Идентификатор : 3
Формат : UTF-8
Идентификатор кодека : S_TEXT/UTF8
Идентификатор кодека/Информация : UTF-8 Plain Text
Заголовок : Forced
Язык : Russian
Default : Да
Forced : Нет
Текст #2
Идентификатор : 4
Формат : UTF-8
Идентификатор кодека : S_TEXT/UTF8
Идентификатор кодека/Информация : UTF-8 Plain Text
Язык : English
Default : Нет
Forced : Нет
Текст #3
Идентификатор : 5
Формат : UTF-8
Идентификатор кодека : S_TEXT/UTF8
Идентификатор кодека/Информация : UTF-8 Plain Text
Язык : English
Default : Нет
Forced : Нет
Меню
00:00:00.000 : en:Chapter 01
00:02:34.654 : en:Chapter 02
00:07:46.465 : en:Chapter 03
00:08:42.813 : en:Chapter 04
00:11:04.622 : en:Chapter 05
00:12:21.198 : en:Chapter 06
00:13:41.153 : en:Chapter 07
00:17:19.913 : en:Chapter 08
00:20:09.541 : en:Chapter 09
00:21:54.771 : en:Chapter 10
00:23:47.092 : en:Chapter 11
00:24:31.386 : en:Chapter 12
00:26:53.444 : en:Chapter 13
00:27:46.623 : en:Chapter 14
00:30:37.293 : en:Chapter 15
00:33:53.406 : en:Chapter 16
00:37:11.270 : en:Chapter 17
00:42:30.089 : en:Chapter 18
00:47:16.124 : en:Chapter 19
00:51:04.144 : en:Chapter 20
00:52:23.723 : en:Chapter 21
00:55:53.266 : en:Chapter 22
00:59:48.251 : en:Chapter 23
01:02:07.807 : en:Chapter 24
01:05:25.504 : en:Chapter 25
01:10:24.094 : en:Chapter 26
01:12:49.531 : en:Chapter 27
01:16:28.458 : en:Chapter 28
01:19:04.322 : en:Chapter 29
01:21:55.160 : en:Chapter 30
01:23:25.667 : en:Chapter 31
01:25:58.986 : en:Chapter 32
01:27:34.957 : en:Chapter 33
01:29:57.308 : en:Chapter 34
01:31:53.841 : en:Chapter 35
01:34:18.736 : en:Chapter 36
01:36:07.511 : en:Chapter 37
01:37:48.237 : en:Chapter 38
01:40:27.604 : en:Chapter 39
01:42:44.074 : en:Chapter 40
01:45:26.778 : en:Chapter 41
01:47:55.010 : en:Chapter 42
01:50:31.416 : en:Chapter 43
01:53:28.885 : en:Chapter 44
01:55:46.272 : en:Chapter 45
01:59:23.447 : en:Chapter 46
02:01:11.347 : en:Chapter 47
02:03:15.596 : en:Chapter 48
02:05:42.117 : en:Chapter 49

[Цитировать]



Показать сообщения:    

Текущее время: 21-Ноя 04:53

Часовой пояс: UTC + 6


Вы не можете начинать темы
Вы не можете отвечать на сообщения
Вы не можете редактировать свои сообщения
Вы не можете удалять свои сообщения
Вы не можете голосовать в опросах
Вы не можете прикреплять файлы к сообщениям
Вы не можете скачивать файлы

!ВНИМАНИЕ!
Сайт не предоставляет электронные версии произведений, а занимается лишь коллекционированием и каталогизацией ссылок, присылаемых и публикуемых на форуме нашими читателями. Если вы являетесь правообладателем какого-либо представленного материала и не желаете, чтобы ссылка на него находилась в нашем каталоге, свяжитесь с нами, и мы незамедлительно удалим ее. Файлы для обмена на трекере предоставлены пользователями сайта, и администрация не несет ответственности за их содержание. Просьба не заливать файлы, защищенные авторскими правами, а также файлы нелегального содержания!