[ Сегодня идет свободное скачивание без начисления Download ]


Статистика раздачи
Качаю: [ 1 ]
Скачал: [ 8 ]
 
   
 
 
 
 
Союзники / Allied
Страна: Великобритания, США
Производство: GK Films, Huahua Film & Media Culture, ImageMovers, Paramount Pictures
Год выпуска: 2016
Жанр: Боевик, триллер, драма, мелодрама, военный
Перевод: Дублированный [Лицензия BD CEE]
Субтитры: Русские (форсированные)
Продолжительность: 02:04:48
Режиссер: Роберт Земекис
В ролях: Брэд Питт, Марион Котийяр, Лиззи Каплан, Аугуст Диль, Шарлотта Хоуп, Рэффи Кэссиди, Мэттью Гуд, Дэниэл Беттс, Саймон МакБерни, Джаред Харрис
Сюжет фильма: 1942 год. Во время опасной миссии в Северной Африке разведчик Макс встречает участницу сопротивления Марианну. Их чувствам суждено подвергнуться тысяче испытаний, главным из которых станет испытание правдой.

Формат видео: MKV
Качество видео: BDRip-AVC
Видео: AVC/H.264, 1032x430, (2,40:1), 1 193 Kbps, 23.976 fps
Аудио: AC3, 6 ch, 448 kbps

MediaInfo

x264 [info]: frame I:1120 Avg QP:15.62 size: 49057
x264 [info]: frame P:34479 Avg QP:17.11 size: 15132
x264 [info]: frame B:143629 Avg QP:18.85 size: 3953
x264 [info]: consecutive B-frames: 1.5% 1.3% 5.7% 14.7% 17.8% 34.5% 9.0% 4.2% 3.3% 1.6% 2.1% 2.0% 1.1% 0.6% 0.8%
x264 [info]: mb I I16..4: 5.2% 72.9% 21.8%
x264 [info]: mb P I16..4: 0.5% 6.1% 1.1% P16..4: 37.4% 29.3% 16.0% 0.0% 0.0% skip: 9.7%
x264 [info]: mb B I16..4: 0.0% 0.3% 0.1% B16..8: 36.3% 11.0% 2.5% direct: 3.2% skip:46.6% L0:43.0% L1:45.7% BI:11.4%
x264 [info]: 8x8 transform intra:77.4% inter:61.9%
x264 [info]: coded y,uvDC,uvAC intra: 87.6% 77.9% 54.1% inter: 13.9% 8.7% 1.5%
x264 [info]: i16 v,h,dc,p: 23% 12% 7% 59%
x264 [info]: i8 v,h,dc,ddl,ddr,vr,hd,vl,hu: 12% 11% 6% 9% 13% 13% 13% 12% 13%
x264 [info]: i4 v,h,dc,ddl,ddr,vr,hd,vl,hu: 10% 9% 3% 10% 16% 14% 14% 11% 12%
x264 [info]: i8c dc,h,v,p: 38% 27% 21% 15%
x264 [info]: Weighted P-Frames: Y:3.9% UV:1.4%
x264 [info]: ref P L0: 49.7% 9.5% 15.9% 6.2% 5.2% 3.8% 3.3% 1.8% 1.7% 1.4% 1.5% 0.1% 0.0%
x264 [info]: ref B L0: 72.2% 11.6% 6.1% 3.0% 2.3% 1.8% 1.4% 0.9% 0.6% 0.2%
x264 [info]: ref B L1: 93.0% 7.0%
x264 [info]: kb/s:1224.81
Format : Matroska
Format version : Version 4 / Version 2
File size : 1.46 GiB
Duration : 2h 4 min
Overall bit rate : 1 674 kb/s
Movie name : Союзники / Allied (2016) :: AFM ::
Encoded date : UTC 2017-03-24 14:20:19
Writing application : mkvmerge v8.3.0 ('Over the Horizon') 32bit
Writing library : libebml v1.3.1 + libmatroska v1.4.2
Video
ID : 1
Format : AVC
Format/Info : Advanced Video Codec
Format profile : High@L4.1
Format settings, CABAC : Yes
Format settings, ReFrames : 11 frames
Codec ID : V_MPEG4/ISO/AVC
Duration : 2h 4 min
Bit rate : 1 193 kb/s
Width : 1 032 pixels
Height : 430 pixels
Display aspect ratio : 2.40:1
Frame rate mode : Constant
Frame rate : 23.976 (24000/1001) FPS
Color space : YUV
Chroma subsampling : 4:2:0
Bit depth : 8 bits
Scan type : Progressive
Bits/(Pixel*Frame) : 0.112
Stream size : 1.04 GiB (71%)
Title : BDRip by AFM
Writing library : x264 core 148 r2762+56 6284cf3 t_mod_Custom [8-bit@all X86_64]
Encoding settings : cabac=1 / ref=11 / deblock=1:-2:-2 / analyse=0x3:0x113 / me=umh / subme=10 / psy=1 / fade_compensate=0.00 / psy_rd=1.00:0.00 / mixed_ref=1 / me_range=32 / chroma_me=1 / trellis=2 / 8x8dct=1 / cqm=0 / deadzone=21,11 / fast_pskip=0 / chroma_qp_offset=-2 / threads=6 / lookahead_threads=1 / sliced_threads=0 / nr=0 / decimate=1 / interlaced=0 / bluray_compat=0 / constrained_intra=0 / fgo=0 / bframes=14 / b_pyramid=2 / b_adapt=2 / b_bias=0 / direct=1 / weightb=1 / open_gop=0 / weightp=2 / keyint=240 / keyint_min=23 / scenecut=40 / intra_refresh=0 / rc_lookahead=60 / rc=crf / mbtree=0 / crf=18.0000 / qcomp=0.65 / qpmin=0:0:0 / qpmax=69:69:69 / qpstep=4 / vbv_maxrate=50000 / vbv_bufsize=62500 / crf_max=0.0 / nal_hrd=none / filler=0 / ip_ratio=1.30 / pb_ratio=1.25 / aq=3:0.90 / aq-sensitivity=10.00 / aq-factor=1.00:1.00:1.00 / aq2=0 / aq3=0 / zones=167700,179228,q=30
Language : English
Default : Yes
Forced : No
Audio
ID : 2
Format : AC-3
Format/Info : Audio Coding 3
Mode extension : CM (complete main)
Format settings, Endianness : Big
Codec ID : A_AC3
Duration : 2h 4 min
Bit rate mode : Constant
Bit rate : 448 kb/s
Channel(s) : 6 channels
Channel positions : Front: L C R, Side: L R, LFE
Sampling rate : 48.0 kHz
Frame rate : 31.250 FPS (1536 spf)
Compression mode : Lossy
Stream size : 399 MiB (27%)
Title : Dub, AC3 5.1 ~448 kbps
Language : Russian
Default : Yes
Forced : No
Text
ID : 3
Format : UTF-8
Codec ID : S_TEXT/UTF8
Codec ID/Info : UTF-8 Plain Text
Title : forced
Language : Russian
Default : Yes
Forced : No
Menu
00:00:00.000 : en:Chapter 01
00:05:38.088 : en:Chapter 02
00:16:39.749 : en:Chapter 03
00:24:31.428 : en:Chapter 04
00:33:52.280 : en:Chapter 05
00:43:07.543 : en:Chapter 06
00:49:14.118 : en:Chapter 07
01:01:39.321 : en:Chapter 08
01:09:36.339 : en:Chapter 09
01:16:44.016 : en:Chapter 10
01:26:14.961 : en:Chapter 11
01:31:53.466 : en:Chapter 12
01:40:12.173 : en:Chapter 13
01:47:25.105 : en:Chapter 14
01:56:35.614 : en:Chapter 15

[Цитировать]



Показать сообщения:    

Текущее время: 25-Сен 08:21

Часовой пояс: UTC + 6


Вы не можете начинать темы
Вы не можете отвечать на сообщения
Вы не можете редактировать свои сообщения
Вы не можете удалять свои сообщения
Вы не можете голосовать в опросах
Вы не можете прикреплять файлы к сообщениям
Вы не можете скачивать файлы

!ВНИМАНИЕ!
Сайт не предоставляет электронные версии произведений, а занимается лишь коллекционированием и каталогизацией ссылок, присылаемых и публикуемых на форуме нашими читателями. Если вы являетесь правообладателем какого-либо представленного материала и не желаете, чтобы ссылка на него находилась в нашем каталоге, свяжитесь с нами, и мы незамедлительно удалим ее. Файлы для обмена на трекере предоставлены пользователями сайта, и администрация не несет ответственности за их содержание. Просьба не заливать файлы, защищенные авторскими правами, а также файлы нелегального содержания!