[ Сегодня идет свободное скачивание без начисления Download ]


Статистика раздачи
Скачал: [ 10 ]
 
   
 
 
 
 
Союзники / Allied
Страна: Великобритания, США
Производство: GK Films, Huahua Film & Media Culture, ImageMovers, Paramount Pictures
Год выпуска: 2016
Жанр: Боевик, триллер, драма, мелодрама, военный
Перевод: Дублированный [Лицензия BD CEE]
Субтитры: Русские форсированные (отдельно)
Продолжительность: 02:04:48
Режиссер: Роберт Земекис
В ролях: Брэд Питт, Марион Котийяр, Лиззи Каплан, Аугуст Диль, Шарлотта Хоуп, Рэффи Кэссиди, Мэттью Гуд, Дэниэл Беттс, Саймон МакБерни, Джаред Харрис
Сюжет фильма: 1942 год. Во время опасной миссии в Северной Африке разведчик Макс встречает участницу сопротивления Марианну. Их чувствам суждено подвергнуться тысяче испытаний, главным из которых станет испытание правдой.

Формат видео: AVI
Качество видео: BDRip | Сэмпл
Видео: XviD, 720x304, ~2042 kbps
Аудио: AC3, 6 ch, 448 kbps

MediaInfo

Общее
Полное имя : F:\Video\Allied.2016.BDRip.2.18Gb.NNM-CLUB.avi
Формат : AVI
Формат/Информация : Audio Video Interleave
Профиль формата : OpenDML
Размер файла : 2,18 Гбайт
Продолжительность : 2 ч. 4 м.
Общий поток : 2502 Кбит/сек
Программа кодирования : VirtualDubMod 1.5.10.3 | www.virtualdub-fr.org || (build 2550/release)
Библиотека кодирования : VirtualDubMod build 2550/release
Видео
Идентификатор : 0
Формат : MPEG-4 Visual
Профиль формата : Advanced Simple@L5
Параметр BVOP формата : 1
Параметр QPel формата : Нет
Параметр GMC формата : Без точки перехода
Параметр матрицы формата : Выборочная
Идентификатор кодека : XVID
Идентификатор кодека/Подсказка : XviD
Продолжительность : 2 ч. 4 м.
Битрейт : 2042 Кбит/сек
Ширина : 720 пикселей
Высота : 304 пикселя
Соотношение сторон : 2,35:1
Частота кадров : 23,976 (24000/1001) кадра/сек
Цветовое пространство : YUV
Субдискретизация насыщенности : 4:2:0
Битовая глубина : 8 бит
Тип развёртки : Прогрессивная
Метод сжатия : С потерями
Бит/(Пиксели*Кадры) : 0.389
Размер потока : 1,78 Гбайт (82%)
Библиотека кодирования : XviD 73
Аудио
Идентификатор : 1
Формат : AC-3
Формат/Информация : Audio Coding 3
Расширение режима : CM (complete main)
Параметр Endianness формата : Big
Идентификатор кодека : 2000
Продолжительность : 2 ч. 4 м.
Вид битрейта : Постоянный
Битрейт : 448 Кбит/сек
Каналы : 6 каналов
Расположение каналов : Front: L C R, Side: L R, LFE
Частота : 48,0 КГц
Частота кадров : 31,250 кадров/сек (1536 spf)
Метод сжатия : С потерями
Размер потока : 399 Мбайт (18%)
Выравнивание : Разделение по промежуткам
Продолжительность промежутка : 42 мс. (1,00 видеокадр)
Время предзагрузки промежутка : 500 мс.

[Цитировать]



Показать сообщения:    

Текущее время: 24-Сен 03:44

Часовой пояс: UTC + 6


Вы не можете начинать темы
Вы не можете отвечать на сообщения
Вы не можете редактировать свои сообщения
Вы не можете удалять свои сообщения
Вы не можете голосовать в опросах
Вы не можете прикреплять файлы к сообщениям
Вы не можете скачивать файлы

!ВНИМАНИЕ!
Сайт не предоставляет электронные версии произведений, а занимается лишь коллекционированием и каталогизацией ссылок, присылаемых и публикуемых на форуме нашими читателями. Если вы являетесь правообладателем какого-либо представленного материала и не желаете, чтобы ссылка на него находилась в нашем каталоге, свяжитесь с нами, и мы незамедлительно удалим ее. Файлы для обмена на трекере предоставлены пользователями сайта, и администрация не несет ответственности за их содержание. Просьба не заливать файлы, защищенные авторскими правами, а также файлы нелегального содержания!