[ Сегодня идет свободное скачивание без начисления Download ]


Статистика раздачи
Скачал: [ 13 ]
 
   
 
 
 
 
-Союзники / Allied
«Nothing is as it seems»- Год выпуска: 2016
Страна: Великобритания, США
Производство: GK Films, Huahua Film & Media Culture, ImageMovers, Paramount Pictures
Жанр: боевик, триллер, драма, мелодрама, военный-Режиссёр: Роберт Земекис / Robert Zemeckis-В ролях: Брэд Питт, Марион Котийяр, Лиззи Каплан, Аугуст Диль, Шарлотта Хоуп, Рэффи Кэссиди, Мэттью Гуд, Дэниэл Беттс, Саймон МакБерни, Джаред Харрис-Перевод: Профессиональный (полное дублирование) [Лицензия BD CEE]
Субтитры: Русские форсированные (отдельно)-Описание: 1942 год. Во время опасной миссии в Северной Африке разведчик Макс встречает участницу сопротивления Марианну. Их чувствам суждено подвергнуться тысяче испытаний, главным из которых станет испытание правдой.- -Качество: HDRip
Продолжительность: 02:04:35
Формат: AVI
Видео: 640x272 (2.35:1), 23.976 fps, XviD build 73 ~706 kbps avg, 0.17 bit/pixel
Аудио: 48 kHz, MP3, 2.0 (L/R) ch, ~128 kbps avg (RUS)-Дата премьеры (мир): 13 ноября 2016
Дата премьеры (РФ): 1 декабря 2016, «Централ Партнершип»

MediaInfo

Общее
Полное имя                               : D:\Кино\Allied.2016.HDRip.745MB.Dub.MegaPeer\Allied.2016.HDRip.745MB.Dub.MegaPeer.avi
Формат                                   : AVI
Формат/Информация                        : Audio Video Interleave
Размер файла                             : 748 Мбайт
Продолжительность                        : 2 ч. 4 м.
Общий поток                              : 839 Кбит/сек
Видео
Идентификатор                            : 0
Формат                                   : MPEG-4 Visual
Профиль формата                          : Advanced Simple@L5
Параметр BVOP формата                    : 1
Параметр QPel формата                    : Нет
Параметр GMC формата                     : Без точки перехода
Параметр матрицы формата                 : Выборочная
Идентификатор кодека                     : XVID
Идентификатор кодека/Подсказка           : XviD
Продолжительность                        : 2 ч. 4 м.
Битрейт                                  : 706 Кбит/сек
Ширина                                   : 640 пикселей
Высота                                   : 272 пикселя
Соотношение сторон                       : 2,35:1
Частота кадров                           : 23,976 (24000/1001) кадра/сек
Цветовое пространство                    : YUV
Субдискретизация насыщенности            : 4:2:0
Битовая глубина                          : 8 бит
Тип развёртки                            : Прогрессивная
Метод сжатия                             : С потерями
Бит/(Пиксели*Кадры)                      : 0.169
Размер потока                            : 629 Мбайт (84%)
Библиотека кодирования                   : XviD 73
Аудио
Идентификатор                            : 1
Формат                                   : MPEG Audio
Версия формата                           : Version 1
Профиль формата                          : Layer 3
Режим                                    : Joint stereo
Расширение режима                        : MS Stereo
Идентификатор кодека                     : 55
Идентификатор кодека/Подсказка           : MP3
Продолжительность                        : 2 ч. 4 м.
Вид битрейта                             : Постоянный
Битрейт                                  : 128 Кбит/сек
Каналы                                   : 2 канала
Частота                                  : 48,0 КГц
Метод сжатия                             : С потерями
Размер потока                            : 114 Мбайт (15%)
Выравнивание                             : Соединение по промежуткам
Продолжительность промежутка             : 167  мс. (4,00 видеокадра)
Время предзагрузки промежутка            : 216  мс.
Заголовок                                : BD CEE
Библиотека кодирования                   : LAME3.99r
Настройки программы                      : -m j -V 4 -q 2 -lowpass 17 -b 128

Скриншоты



[Цитировать]

Перевод: Профессиональный (полное дублирование) [Лицензия BD CEE]
Что значит "BD CEE"? Это лицензия или НЕ лицензия?

[Цитировать]

94292Перевод: Профессиональный (полное дублирование) [Лицензия BD CEE]
Что значит "BD CEE"? Это лицензия или НЕ лицензия?
Конечно Лицензия!
"BD CEE" - это значит лицензиозный блю-рэй.

[Цитировать]

Топик был перенесен из форума Новинки кинопроката 2016 в форум Боевик
D-r Woland_kz



Показать сообщения:    

Текущее время: 21-Ноя 04:54

Часовой пояс: UTC + 6


Вы не можете начинать темы
Вы не можете отвечать на сообщения
Вы не можете редактировать свои сообщения
Вы не можете удалять свои сообщения
Вы не можете голосовать в опросах
Вы не можете прикреплять файлы к сообщениям
Вы не можете скачивать файлы

!ВНИМАНИЕ!
Сайт не предоставляет электронные версии произведений, а занимается лишь коллекционированием и каталогизацией ссылок, присылаемых и публикуемых на форуме нашими читателями. Если вы являетесь правообладателем какого-либо представленного материала и не желаете, чтобы ссылка на него находилась в нашем каталоге, свяжитесь с нами, и мы незамедлительно удалим ее. Файлы для обмена на трекере предоставлены пользователями сайта, и администрация не несет ответственности за их содержание. Просьба не заливать файлы, защищенные авторскими правами, а также файлы нелегального содержания!