[ Сегодня идет свободное скачивание без начисления Download ]


Статистика раздачи
Скачал: [ 21 ]
 
   
 
 
 
 
-Монстр-траки / Monster Trucks«Знакомьтесь с Кричем»- Год выпуска: 2016
Страна: США
Производство: Disruption Entertainment, Nickelodeon Movies, Paramount Animation, Paramount Pictures
Жанр: фантастика, боевик, комедия, семейный-Режиссёр: Крис Уэдж / Chris Wedge
В ролях: Лукас Тилл, Джейн Леви, Томас Леннон, Барри Пеппер, Роб Лоу, Дэнни Гловер, Эми Райан, Холт МакКэллани, Фрэнк Уэйли, Алийа О’Брайен-Перевод: Дублированный [Лицензия]
Субтитры: Русские на надписи (отдельно)-Описание: Старшеклассник Трипп мечтает сбежать из скучного городка, где родился и вырос, и увлеченно собирает монстр-трак из обломков старых авто. И когда происшествие на буровой вышке высвобождает из-под земли удивительное создание, знающее толк в скорости, у Триппа появляется реальный шанс не только наконец-то изменить жизнь, но и обрести настоящего друга… Если, конечно, никто не вмешается.- -Качество: BDRip | BDRemux HDClub |
Продолжительность: 01:44:44
Формат: AVI
Видео: 720x304 (2.35:1), 23,976 fps, XviD build 73 ~1541 kbps avg, 0.29 bit/pixel
Аудио: 48 kHz, AC3 Dolby Digital, 3/2 (L,C,R,l,r) + LFE ch, ~448.00 kbps avg (RUS)-Дата премьеры (мир): 21 декабря 2016
Дата премьеры (РФ): 5 января 2017, «Централ Партнершип»

MediaInfo

Общее
Полное имя                               : D:\Кино\Monster.Trucks.2016.BDRip.1.46Gb.Dub.MegaPeer\Monster.Trucks.2016.BDRip.1.46Gb.Dub.MegaPeer.avi
Формат                                   : AVI
Формат/Информация                        : Audio Video Interleave
Размер файла                             : 1,46 Гбайт
Продолжительность                        : 1 ч. 44 м.
Общий поток                              : 1996 Кбит/сек
Видео
Идентификатор                            : 0
Формат                                   : MPEG-4 Visual
Профиль формата                          : Advanced Simple@L5
Параметр BVOP формата                    : 1
Параметр QPel формата                    : Нет
Параметр GMC формата                     : Без точки перехода
Параметр матрицы формата                 : Выборочная
Идентификатор кодека                     : XVID
Идентификатор кодека/Подсказка           : XviD
Продолжительность                        : 1 ч. 44 м.
Битрейт                                  : 1541 Кбит/сек
Ширина                                   : 720 пикселей
Высота                                   : 304 пикселя
Соотношение сторон                       : 2,35:1
Частота кадров                           : 23,976 (24000/1001) кадра/сек
Цветовое пространство                    : YUV
Субдискретизация насыщенности            : 4:2:0
Битовая глубина                          : 8 бит
Тип развёртки                            : Прогрессивная
Метод сжатия                             : С потерями
Бит/(Пиксели*Кадры)                      : 0.294
Размер потока                            : 1,13 Гбайт (77%)
Библиотека кодирования                   : XviD 73
Аудио
Идентификатор                            : 1
Формат                                   : AC-3
Формат/Информация                        : Audio Coding 3
Расширение режима                        : CM (complete main)
Параметр Endianness формата              : Big
Идентификатор кодека                     : 2000
Продолжительность                        : 1 ч. 44 м.
Вид битрейта                             : Постоянный
Битрейт                                  : 448 Кбит/сек
Каналы                                   : 6 каналов
Расположение каналов                     : Front: L C R, Side: L R, LFE
Частота                                  : 48,0 КГц
Частота кадров                           : 31,250 кадров/сек (1536 spf)
Битовая глубина                          : 16 бит
Метод сжатия                             : С потерями
Размер потока                            : 336 Мбайт (22%)
Выравнивание                             : Соединение по промежуткам
Продолжительность промежутка             : 64  мс. (1,53 видеокадра)
Время предзагрузки промежутка            : 192  мс.
Заголовок                                : BD CEE

Скриншоты



Последний раз редактировалось: Kvanter (2017-04-15 22:13), всего редактировалось 2 раз(а)

[Цитировать]

Заменил на Лицензию

[Цитировать]

Скриншоты нужно сделать с увеличением по клику.

[Цитировать]



Показать сообщения:    

Текущее время: 21-Ноя 12:27

Часовой пояс: UTC + 6


Вы не можете начинать темы
Вы не можете отвечать на сообщения
Вы не можете редактировать свои сообщения
Вы не можете удалять свои сообщения
Вы не можете голосовать в опросах
Вы не можете прикреплять файлы к сообщениям
Вы не можете скачивать файлы

!ВНИМАНИЕ!
Сайт не предоставляет электронные версии произведений, а занимается лишь коллекционированием и каталогизацией ссылок, присылаемых и публикуемых на форуме нашими читателями. Если вы являетесь правообладателем какого-либо представленного материала и не желаете, чтобы ссылка на него находилась в нашем каталоге, свяжитесь с нами, и мы незамедлительно удалим ее. Файлы для обмена на трекере предоставлены пользователями сайта, и администрация не несет ответственности за их содержание. Просьба не заливать файлы, защищенные авторскими правами, а также файлы нелегального содержания!