[ Сегодня идет свободное скачивание без начисления Download ]


Статистика раздачи
Скачал: [ 14 ]
 
   
 
 
 
 
Преисподняя / Brimstone (2016) BDRip-AVC«Retribution is coming»- Производство: Нидерланды, Франция, Германия, Бельгия, Швеция, Великобритания / Backup Media, FilmWave, Illusion Film & Television AB, N279 Entertainment, Prime Time, X-Filme Creative Pool
Жанр: Триллер, Детектив, Вестерн
Режиссер: Мартин Кулховен
Актеры: Дакота Фэннинг, Кит Харингтон, Кэрис ван Хаутен, Гай Пирс, Пол Андерсон, Эмилия Джонс, Карла Юри, Джек Рот, Тиго Гернандт, Наоми Баттрик
Описание:
История о девушке по имени Лиз, которая пытается сбежать от своего темного прошлого и скрывается от преследования «дьявольского» проповедника.

Возраст: 18+ (зрителям, достигшим 18 лет. запрещено для детей)
Рейтинг MPAA: R (лицам до 17 лет обязательно присутствие взрослого)
Дата мировой премьеры: 3 сентября 2016г
Дата российской премьеры: 12 января 2017, «Вольга»
Продолжительность: 02:28:34
Качество видео: BDRip (H.264) [sample]
Перевод: Многоголосый закадровый, профессиональный (iTunes)
Субтитры: Русские, английские
Видео: AVC/H.264, 1024x430 (2.40:1), 1756 kbps, 23.976 fps
Аудио: AC3, 6 ch, 384 Kbps - Русский (MVO - iTunes)
Аудио: AC3, 6 ch, 448 Kbps - Английский (оригинальный)

MediaInfo:

General
Unique ID : 233104304498814365640054045274468477509 (0xAF5E418A868CC0739B79E0022C9B6A45)
Complete name : D:\NNMClub\Brimstone.2016.BDRip(AVC).OlLanDGroup.mkv
Format : Matroska
Format version : Version 2
File size : 2.69 GiB
Duration : 2 h 28 min
Overall bit rate : 2 589 kb/s
Movie name : Brimstone.2016 #TorpedoUK#
Encoded date : UTC 2017-04-03 02:04:51
Writing application : mkvmerge v7.8.0 ('River Man') 32bit built on Apr 3 2015 12:11:22
Writing library : libebml v1.3.1 + libmatroska v1.4.2
Video
ID : 1
Format : AVC
Format/Info : Advanced Video Codec
Format profile : High@L4.1
Format settings, CABAC : Yes
Format settings, ReFrames : 10 frames
Codec ID : V_MPEG4/ISO/AVC
Duration : 2 h 28 min
Bit rate : 1 756 kb/s
Width : 1 024 pixels
Height : 430 pixels
Display aspect ratio : 2.40:1
Frame rate mode : Constant
Frame rate : 23.976 (24000/1001) FPS
Color space : YUV
Chroma subsampling : 4:2:0
Bit depth : 8 bits
Scan type : Progressive
Bits/(Pixel*Frame) : 0.166
Stream size : 1.77 GiB (66%)
Writing library : x264 core 146 r2538 121396c
Encoding settings : cabac=1 / ref=10 / deblock=1:-3:-3 / analyse=0x3:0x133 / me=umh / subme=11 / psy=1 / psy_rd=1.00:0.07 / mixed_ref=1 / me_range=48 / chroma_me=1 / trellis=2 / 8x8dct=1 / cqm=0 / deadzone=21,11 / fast_pskip=0 / chroma_qp_offset=-3 / threads=6 / lookahead_threads=1 / sliced_threads=0 / nr=0 / decimate=0 / interlaced=0 / bluray_compat=0 / constrained_intra=0 / bframes=10 / b_pyramid=2 / b_adapt=2 / b_bias=0 / direct=3 / weightb=1 / open_gop=0 / weightp=2 / keyint=240 / keyint_min=23 / scenecut=40 / intra_refresh=0 / rc_lookahead=40 / rc=2pass / mbtree=0 / bitrate=1756 / ratetol=1.0 / qcomp=0.60 / qpmin=0 / qpmax=69 / qpstep=4 / cplxblur=20.0 / qblur=0.5 / vbv_maxrate=50000 / vbv_bufsize=62500 / nal_hrd=none / filler=0 / ip_ratio=1.40 / pb_ratio=1.30 / aq=1:1.00
Language : English
Default : Yes
Forced : No
Color range : Limited
Color primaries : BT.709
Transfer characteristics : BT.709
Matrix coefficients : BT.709
Audio #1
ID : 2
Format : AC-3
Format/Info : Audio Coding 3
Mode extension : CM (complete main)
Format settings, Endianness : Big
Codec ID : A_AC3
Duration : 2 h 28 min
Bit rate mode : Constant
Bit rate : 384 kb/s
Channel(s) : 6 channels
Channel positions : Front: L C R, Side: L R, LFE
Sampling rate : 48.0 kHz
Frame rate : 31.250 FPS (1536 spf)
Bit depth : 16 bits
Compression mode : Lossy
Stream size : 408 MiB (15%)
Title : iTunes
Language : Russian
Default : Yes
Forced : No
Audio #2
ID : 3
Format : AC-3
Format/Info : Audio Coding 3
Mode extension : CM (complete main)
Format settings, Endianness : Big
Codec ID : A_AC3
Duration : 2 h 28 min
Bit rate mode : Constant
Bit rate : 448 kb/s
Channel(s) : 6 channels
Channel positions : Front: L C R, Side: L R, LFE
Sampling rate : 48.0 kHz
Frame rate : 31.250 FPS (1536 spf)
Bit depth : 16 bits
Compression mode : Lossy
Stream size : 476 MiB (17%)
Title : Original
Language : English
Default : No
Forced : No
Text #1
ID : 4
Format : UTF-8
Codec ID : S_TEXT/UTF8
Codec ID/Info : UTF-8 Plain Text
Title : Full (iTunes)
Language : Russian
Default : No
Forced : No
Text #2
ID : 5
Format : UTF-8
Codec ID : S_TEXT/UTF8
Codec ID/Info : UTF-8 Plain Text
Title : Full
Language : English
Default : No
Forced : No
Menu
00:00:00.000 : en:Chapter 1
00:04:29.851 : en:Chapter 2
00:11:51.918 : en:Chapter 3
00:19:58.488 : en:Chapter 4
00:25:06.212 : en:Chapter 5
00:32:22.190 : en:Chapter 6
00:42:25.041 : en:Chapter 7
00:48:21.148 : en:Chapter 8
00:55:44.340 : en:Chapter 9
01:01:14.253 : en:Chapter 10
01:06:42.039 : en:Chapter 11
01:17:13.962 : en:Chapter 12
01:24:38.155 : en:Chapter 13
01:32:47.310 : en:Chapter 14
01:39:57.240 : en:Chapter 15
01:49:04.787 : en:Chapter 16
01:56:10.630 : en:Chapter 17
02:02:54.867 : en:Chapter 18
02:13:38.176 : en:Chapter 19
02:20:17.908 : en:Chapter 20
Скриншоты:

[Цитировать]



Показать сообщения:    

Текущее время: 26-Сен 06:18

Часовой пояс: UTC + 6


Вы не можете начинать темы
Вы не можете отвечать на сообщения
Вы не можете редактировать свои сообщения
Вы не можете удалять свои сообщения
Вы не можете голосовать в опросах
Вы не можете прикреплять файлы к сообщениям
Вы не можете скачивать файлы

!ВНИМАНИЕ!
Сайт не предоставляет электронные версии произведений, а занимается лишь коллекционированием и каталогизацией ссылок, присылаемых и публикуемых на форуме нашими читателями. Если вы являетесь правообладателем какого-либо представленного материала и не желаете, чтобы ссылка на него находилась в нашем каталоге, свяжитесь с нами, и мы незамедлительно удалим ее. Файлы для обмена на трекере предоставлены пользователями сайта, и администрация не несет ответственности за их содержание. Просьба не заливать файлы, защищенные авторскими правами, а также файлы нелегального содержания!