[ Сегодня идет свободное скачивание без начисления Download ]


Статистика раздачи
Скачал: [ 9 ]
 
   
 
 
 
 
2+1 / Demain tout commence-- Производство: Франция, Великобритания / Canal+ [fr], Ciné, Korokoro
Жанр: комедия, драма, семейный
Режиссер: Хьюго Желен
Продюсер: Стефани Сэлерье, Филипп Руссле, Летиция Голицына
Актеры: Омар Си, Клеманс Поэзи, Антуан Бертран, Эшли Уолтерс, Глория Колстон, Клементин Селарье, Анна Коттис, Ральф фон Блюменталь, Бен Хоумвуд, Алис Давид
Описание:
Жизнь главного героя была легка и беззаботна ровно до тех пор, пока одна из его бывших не подкинула ему грудного ребёнка. Решив, что такая проблема ему не нужна, он поехал искать мать малышки Глории. Но все сложилось иначе…

Возраст: 16+ (зрителям, достигшим 16 лет)
Дата мировой премьеры: 4 ноября 2016
Дата премьеры в России: 12 января 2017, «MEGOGO Distribution»
Релиз на DVD/Blu-Ray: 24 апреля 2017, «НД Плэй»
Релиз от: qqss44
Продолжительность: 01:57:35
Качество: BDRip 1080p
Перевод: Профессиональный (многоголосый, закадровый) (iTunes)
Субтитры: Отсутствуют
Видео: AVC/H.264, 1920x800, (2.40:1), 8800 Kbps, 24.000 fps
Аудио: AC3, 6 ch, 384 kbps - Русский

MediaInfo:

Общее
Уникальный идентификатор : 200978714606381446899724337418189347144 (0x973317ABC0B2BC4F95C3E28A489F1948)
Полное имя : X:ATorrentDemain.tout.commence.2106.BDRip.1080p.(qqss44).mkv
Формат : Matroska
Версия формата : Version 2
Размер файла : 7,53 Гбайт
Продолжительность : 1 ч. 57 м.
Общий поток : 9166 Кбит/сек
Название фильма : Demain.tout.commence.2106.BDRip.1080p.(qqss44)
Дата кодирования : UTC 2017-04-07 09:45:34
Программа кодирования : mkvmerge v5.8.0 ('No Sleep / Pillow') built on Sep 2 2012 15:37:04
Библиотека кодирования : libebml v1.2.3 + libmatroska v1.3.0
Видео
Идентификатор : 1
Формат : AVC
Формат/Информация : Advanced Video Codec
Профиль формата : High@L4.1
Параметр CABAC формата : Да
Параметр ReFrames формата : 5 кадров
Идентификатор кодека : V_MPEG4/ISO/AVC
Продолжительность : 1 ч. 57 м.
Битрейт : 8800 Кбит/сек
Ширина : 1920 пикселей
Высота : 800 пикселей
Соотношение сторон : 2,40:1
Режим частоты кадров : Постоянный
Частота кадров : 24,000 кадра/сек
Цветовое пространство : YUV
Субдискретизация насыщенности : 4:2:0
Битовая глубина : 8 бит
Тип развёртки : Прогрессивная
Бит/(Пиксели*Кадры) : 0.239
Размер потока : 7,06 Гбайт (94%)
Заголовок : Demain.tout.commence.2106.BDRip.1080p.(qqss44)
Библиотека кодирования : x264 core 148 r2744kMod b97ae06
Настройки программы : cabac=1 / ref=5 / deblock=1:-3:-3 / analyse=0x3:0x113 / me=umh / subme=11 / psy=1 / fade_compensate=0.00 / psy_rd=1.00:0.00 / mixed_ref=1 / me_range=32 / chroma_me=1 / trellis=2 / 8x8dct=1 / cqm=0 / deadzone=21,11 / fast_pskip=0 / chroma_qp_offset=-2 / threads=12 / lookahead_threads=2 / sliced_threads=0 / nr=0 / decimate=0 / interlaced=0 / bluray_compat=0 / constrained_intra=0 / bframes=8 / b_pyramid=2 / b_adapt=2 / b_bias=0 / direct=3 / weightb=1 / open_gop=0 / weightp=2 / keyint=240 / keyint_min=23 / scenecut=40 / intra_refresh=0 / rc=2pass / mbtree=0 / bitrate=8800 / ratetol=1.0 / qcomp=0.65 / qpmin=0 / qpmax=69 / qpstep=4 / cplxblur=20.0 / qblur=0.5 / ip_ratio=1.40 / pb_ratio=1.30 / aq=3:0.70
Язык : English
Default : Да
Forced : Нет
Аудио
Идентификатор : 2
Формат : AC-3
Формат/Информация : Audio Coding 3
Расширение режима : CM (complete main)
Параметр Endianness формата : Big
Идентификатор кодека : A_AC3
Продолжительность : 1 ч. 57 м.
Вид битрейта : Постоянный
Битрейт : 384 Кбит/сек
Каналы : 6 каналов
Расположение каналов : Front: L C R, Side: L R, LFE
Частота : 48,0 КГц
Частота кадров : 31,250 кадров/сек (1536 spf)
Метод сжатия : С потерями
Размер потока : 323 Мбайт (4%)
Язык : Russian
Default : Да
Forced : Нет
Меню
00:00:00.000 : en:00:00:00.000
00:07:54.582 : en:00:07:54.582
00:16:15.582 : en:00:16:15.582
00:28:43.665 : en:00:28:43.665
00:36:19.083 : en:00:36:19.083
00:46:12.250 : en:00:46:12.250
00:53:07.000 : en:00:53:07.000
01:04:10.500 : en:01:04:10.500
01:12:16.541 : en:01:12:16.541
01:24:57.332 : en:01:24:57.332
01:34:59.832 : en:01:34:59.832
01:47:23.625 : en:01:47:23.625
01:57:23.750 : en:01:57:23.750

Трейлер:

Смотреть видео
Скриншоты:

[Цитировать]



Показать сообщения:    

Текущее время: 17-Ноя 23:38

Часовой пояс: UTC + 6


Вы не можете начинать темы
Вы не можете отвечать на сообщения
Вы не можете редактировать свои сообщения
Вы не можете удалять свои сообщения
Вы не можете голосовать в опросах
Вы не можете прикреплять файлы к сообщениям
Вы не можете скачивать файлы

!ВНИМАНИЕ!
Сайт не предоставляет электронные версии произведений, а занимается лишь коллекционированием и каталогизацией ссылок, присылаемых и публикуемых на форуме нашими читателями. Если вы являетесь правообладателем какого-либо представленного материала и не желаете, чтобы ссылка на него находилась в нашем каталоге, свяжитесь с нами, и мы незамедлительно удалим ее. Файлы для обмена на трекере предоставлены пользователями сайта, и администрация не несет ответственности за их содержание. Просьба не заливать файлы, защищенные авторскими правами, а также файлы нелегального содержания!