[ Сегодня идет свободное скачивание без начисления Download ]


Статистика раздачи
Буду качать: [ 1 ]
Качаю: [ 2 ]
Скачал: [ 23 ]
 
   
 
 
 
 
Сплит / Split (2016) HDRip-AVC- Производство: США, Blinding Edge Pictures, Blumhouse Productions
Жанр: Ужасы, Триллер
Режиссер: М. Найт Шьямалан
Продюсер: Марк Бьенсток, Джейсон Блум, Дом Катанцарите
Актеры: Джеймс МакЭвой, Бетти Бакли, Иззи Коффи, Накия Диллард, Дэнн Финк, Кэш Гойнс, Розмари Ховард, Нил Хафф
Описание:
Кевин — человек, в котором живет не менее двадцати трех личностей, вынужден похитить трех девушек подросткового возраста. Тем временем, пока они находятся в заточении, самая главная личность Кевина — Чудовище — материализуется.

Возраст: 16+ (зрителям, достигшим 16 лет)
Рейтинг MPAA: PG-13 (детям до 13 лет просмотр нежелателен)
Дата мировой премьеры: 26 сентября 2016
Дата российской премьеры: 16 марта 2017, «UPI»
Продолжительность: 01:57:07
Качество видео: HDRip (H.264)[sample]

Перевод: Многоголосый закадровый, любительский ( Студия "Paradox" & Omskbird records )
Субтитры: Английские
Видео: AVC/H.264, 1024х428, ~1504 Kbps
Аудио: AC3, 2 ch, 192 Kbps - русский
Аудио: AC3, 6 ch, 448 Kbps - английский

Mediainfo:

Общее
Уникальный идентификатор : 196697775097159140483287529048498558087 (0x93FA9D0EB08DC53F8906049CA688D487)
Полное имя : E:\Новая папка\Split.2016.MVO.HDRip.AVC.ExKinoRay.mkv
Формат : Matroska
Версия формата : Version 2
Размер файла : 1,76 Гбайт
Продолжительность : 1 ч. 57 м.
Общий поток : 2146 Кбит/сек
Название фильма : Split 2016 from ExKinoRay
Дата кодирования : UTC 2017-04-07 03:59:15
Программа кодирования : mkvmerge v5.8.0 ('No Sleep / Pillow') built on Sep 2 2012 15:37:04
Библиотека кодирования : libebml v1.2.3 + libmatroska v1.3.0
Видео
Идентификатор : 1
Формат : AVC
Формат/Информация : Advanced Video Codec
Профиль формата : High@L4.1
Параметр CABAC формата : Да
Параметр ReFrames формата : 12 кадров
Идентификатор кодека : V_MPEG4/ISO/AVC
Продолжительность : 1 ч. 57 м.
Битрейт : 1504 Кбит/сек
Ширина : 1024 пикселя
Высота : 428 пикселей
Соотношение сторон : 2,40:1
Режим частоты кадров : Постоянный
Частота кадров : 23,976 (24000/1001) кадра/сек
Цветовое пространство : YUV
Субдискретизация насыщенности : 4:2:0
Битовая глубина : 8 бит
Тип развёртки : Прогрессивная
Бит/(Пиксели*Кадры) : 0.143
Размер потока : 1,20 Гбайт (68%)
Заголовок : Enigma
Библиотека кодирования : x264 core 144 r2525 40bb568
Настройки программы : cabac=1 / ref=12 / deblock=1:-2:-2 / analyse=0x3:0x113 / me=umh / subme=10 / psy=1 / psy_rd=1.05:0.10 / mixed_ref=1 / me_range=32 / chroma_me=1 / trellis=2 / 8x8dct=1 / cqm=0 / deadzone=21,11 / fast_pskip=1 / chroma_qp_offset=-3 / threads=12 / lookahead_threads=3 / sliced_threads=0 / nr=0 / decimate=0 / interlaced=0 / bluray_compat=0 / constrained_intra=0 / bframes=14 / b_pyramid=2 / b_adapt=2 / b_bias=0 / direct=3 / weightb=1 / open_gop=0 / weightp=2 / keyint=240 / keyint_min=23 / scenecut=40 / intra_refresh=0 / rc_lookahead=40 / rc=2pass / mbtree=0 / bitrate=1504 / ratetol=1.0 / qcomp=0.60 / qpmin=0 / qpmax=51 / qpstep=4 / cplxblur=20.0 / qblur=0.5 / vbv_maxrate=50000 / vbv_bufsize=62500 / nal_hrd=none / filler=0 / ip_ratio=1.40 / pb_ratio=1.30 / aq=1:1.00
Язык : English
Default : Да
Forced : Нет
Цветовой диапазон : Limited
Основные цвета : BT.709
Характеристики трансфера : BT.709
Коэффициенты матрицы : BT.709
Аудио #1
Идентификатор : 2
Формат : AC-3
Формат/Информация : Audio Coding 3
Расширение режима : CM (complete main)
Параметр Endianness формата : Big
Идентификатор кодека : A_AC3
Продолжительность : 1 ч. 57 м.
Вид битрейта : Постоянный
Битрейт : 192 Кбит/сек
Каналы : 2 канала
Расположение каналов : Front: L R
Частота : 48,0 КГц
Частота кадров : 31,250 кадров/сек (1536 spf)
Битовая глубина : 16 бит
Метод сжатия : С потерями
Размер потока : 161 Мбайт (9%)
Заголовок : MVO
Язык : Russian
Default : Да
Forced : Нет
Аудио #2
Идентификатор : 3
Формат : AC-3
Формат/Информация : Audio Coding 3
Расширение режима : CM (complete main)
Параметр Endianness формата : Big
Идентификатор кодека : A_AC3
Продолжительность : 1 ч. 57 м.
Вид битрейта : Постоянный
Битрейт : 448 Кбит/сек
Каналы : 6 каналов
Расположение каналов : Front: L C R, Side: L R, LFE
Частота : 48,0 КГц
Частота кадров : 31,250 кадров/сек (1536 spf)
Битовая глубина : 16 бит
Метод сжатия : С потерями
Размер потока : 375 Мбайт (21%)
Язык : English
Default : Нет
Forced : Нет
Текст #1
Идентификатор : 4
Формат : UTF-8
Идентификатор кодека : S_TEXT/UTF8
Идентификатор кодека/Информация : UTF-8 Plain Text
Заголовок : Colored
Язык : English
Default : Нет
Forced : Нет
Текст #2
Идентификатор : 5
Формат : UTF-8
Идентификатор кодека : S_TEXT/UTF8
Идентификатор кодека/Информация : UTF-8 Plain Text
Заголовок : Full
Язык : English
Default : Нет
Forced : Нет
Текст #3
Идентификатор : 6
Формат : UTF-8
Идентификатор кодека : S_TEXT/UTF8
Идентификатор кодека/Информация : UTF-8 Plain Text
Заголовок : SDH
Язык : English
Default : Нет
Forced : Нет
Меню
00:00:00.000 : en:00:00:00.000
00:06:08.451 : en:00:06:08.451
00:14:19.025 : en:00:14:19.025
00:20:49.373 : en:00:20:49.373
00:24:14.536 : en:00:24:14.536
00:28:37.049 : en:00:28:37.049
00:35:47.979 : en:00:35:47.979
00:42:35.386 : en:00:42:35.386
00:49:06.068 : en:00:49:06.068
00:54:09.413 : en:00:54:09.413
01:00:24.496 : en:01:00:24.496
01:06:22.562 : en:01:06:22.562
01:12:31.222 : en:01:12:31.222
01:19:35.771 : en:01:19:35.771
01:25:25.829 : en:01:25:25.829
01:29:16.560 : en:01:29:16.560
01:34:08.226 : en:01:34:08.226
01:40:45.998 : en:01:40:45.998
01:47:40.287 : en:01:47:40.287
01:52:26.740 : en:01:52:26.740
Скриншоты:

[Цитировать]



Показать сообщения:    

Текущее время: 24-Ноя 15:24

Часовой пояс: UTC + 6


Вы не можете начинать темы
Вы не можете отвечать на сообщения
Вы не можете редактировать свои сообщения
Вы не можете удалять свои сообщения
Вы не можете голосовать в опросах
Вы не можете прикреплять файлы к сообщениям
Вы не можете скачивать файлы

!ВНИМАНИЕ!
Сайт не предоставляет электронные версии произведений, а занимается лишь коллекционированием и каталогизацией ссылок, присылаемых и публикуемых на форуме нашими читателями. Если вы являетесь правообладателем какого-либо представленного материала и не желаете, чтобы ссылка на него находилась в нашем каталоге, свяжитесь с нами, и мы незамедлительно удалим ее. Файлы для обмена на трекере предоставлены пользователями сайта, и администрация не несет ответственности за их содержание. Просьба не заливать файлы, защищенные авторскими правами, а также файлы нелегального содержания!