[ Сегодня идет свободное скачивание без начисления Download ]


Статистика раздачи
Скачал: [ 35 ]
 
   
 
 
 
 
Неоспоримый 4 / Boyka: Undisputed IV Год выпуска: 2016
Страна: Таиланд
Производство: Nu Boyana Viburno
Жанр: Боевик
Режиссёр: Тодор Чапканов
В ролях: Скотт Эдкинс, Теодора Духовникова, Алон Абутбул, Юлиан Вергов, Брахим Ачаббаке, Пол Чахиди, Валентин Ганев, Владо Мажанаов, Мартин Форд
Перевод: Любительский (многоголосый, закадровый) [@MUZOBOZ@]
Описание: Бойка пробует свои силы в высшей лиге, но случайная смерть на ринге заставляет его подвергнуть сомнению всё, во что он верит.

Доп. информация: Реклама!
Качество: WEB-DLRip
Продолжительность: 01:26:59
Формат: AVI
Видео кодек: XviD
Аудио кодек: AС3
Видео: 720x384 (1.85:1), 25 fps, XviD ~ 1856 kbps avg, 0.268 bit/pixel
Аудио: AC 3, 48 kHz, 2 ch, ~ 384.00 kbps avg
Дата премьеры (мир): 22 сентября 2016

MI

General
Complete name                  : E:\1\Готовые\Boyka.Undisputed.2O17.P.WEB-DLRip.14OOMB_KOSHARA.avi
Format                         : AVI
Format/Info                    : Audio Video Interleave
File size                      : 1.37 GiB
Duration                       : 1 h 26 min
Overall bit rate               : 2 250 kb/s
Writing application            : VirtualDubMod 1.5.10.2 (build 2540/release)
Writing library                : VirtualDubMod build 2540/release
Video
ID                             : 0
Format                         : MPEG-4 Visual
Format profile                 : Advanced Simple@L5
Format settings, BVOP          : 2
Format settings, QPel          : No
Format settings, GMC           : No warppoints
Format settings, Matrix        : Default (MPEG)
Codec ID                       : XVID
Codec ID/Hint                  : XviD
Duration                       : 1 h 26 min
Bit rate                       : 1 856 kb/s
Width                          : 720 pixels
Height                         : 384 pixels
Display aspect ratio           : 1.85:1
Frame rate                     : 25.000 FPS
Color space                    : YUV
Chroma subsampling             : 4:2:0
Bit depth                      : 8 bits
Scan type                      : Progressive
Compression mode               : Lossy
Bits/(Pixel*Frame)             : 0.268
Stream size                    : 1.13 GiB (82%)
Writing library                : XviD 1.2.1 (UTC 2008-12-04)
Audio
ID                             : 1
Format                         : AC-3
Format/Info                    : Audio Coding 3
Format settings, Endianness    : Big
Codec ID                       : 2000
Duration                       : 1 h 26 min
Bit rate mode                  : Constant
Bit rate                       : 384 kb/s
Channel(s)                     : 2 channels
Channel positions              : Front: L R
Sampling rate                  : 48.0 kHz
Frame rate                     : 31.250 FPS (1536 spf)
Bit depth                      : 16 bits
Compression mode               : Lossy
Stream size                    : 239 MiB (17%)
Alignment                      : Split accross interleaves
Interleave, duration           : 40  ms (1.00 video frame)
Interleave, preload duration   : 500  ms
Service kind                   : Complete Main

[Цитировать]



Показать сообщения:    

Текущее время: 20-Сен 22:25

Часовой пояс: UTC + 6


Вы не можете начинать темы
Вы не можете отвечать на сообщения
Вы не можете редактировать свои сообщения
Вы не можете удалять свои сообщения
Вы не можете голосовать в опросах
Вы не можете прикреплять файлы к сообщениям
Вы не можете скачивать файлы

!ВНИМАНИЕ!
Сайт не предоставляет электронные версии произведений, а занимается лишь коллекционированием и каталогизацией ссылок, присылаемых и публикуемых на форуме нашими читателями. Если вы являетесь правообладателем какого-либо представленного материала и не желаете, чтобы ссылка на него находилась в нашем каталоге, свяжитесь с нами, и мы незамедлительно удалим ее. Файлы для обмена на трекере предоставлены пользователями сайта, и администрация не несет ответственности за их содержание. Просьба не заливать файлы, защищенные авторскими правами, а также файлы нелегального содержания!