[ Сегодня идет свободное скачивание без начисления Download ]


Статистика раздачи
Скачал: [ 8 ]
 
   
 
 
 
 
Неоспоримый 4 / Boyka: Undisputed IVГод выпуска: 2016
Страна: Таиланд
Производство: Nu Boyana Viburno
Жанр: Боевик
Режиссёр: Тодор Чапканов
В ролях: Скотт Эдкинс, Теодора Духовникова, Алон Абутбул, Юлиан Вергов, Брахим Ачаббаке, Пол Чахиди, Валентин Ганев, Владо Мажанаов, Мартин Форд
Перевод: Любительский (многоголосый, закадровый) [@MUZOBOZ@]
Описание: Бойка пробует свои силы в высшей лиге, но случайная смерть на ринге заставляет его подвергнуть сомнению всё, во что он верит.

Доп. информация: Реклама!
Качество: WEB-DL 1080p
Продолжительность: 01:26:59
Формат: MKV
Видео кодек: AVC
Аудио кодек: AС3
Видео: 1920x1040 (16:9), 25 fps, AVC ~ 4949 kbps avg, 0.099 bit/pixel
Аудио: AC 3, 48 kHz, 2 ch, ~ 384.00 kbps avg
Дата премьеры (мир): 22 сентября 2016

MI

General
Unique ID : 231102206320763676275182743844183639012 (0xADDCAA7AD40D7B5BB1D7B257E76083E4)
Complete name : E:\1\Готовые\Boyka.Undisputed.2O17.P.WEB-DL.1O8Op_KOSHARA.mkv
Format : Matroska
Format version : Version 2
File size : 3.24 GiB
Duration : 1 h 26 min
Overall bit rate mode : Variable
Overall bit rate : 5 335 kb/s
Encoded date : UTC 2017-04-08 19:20:23
Writing application : mkvmerge v8.3.0 ('Over the Horizon') 64bit
Writing library : libebml v1.3.1 + libmatroska v1.4.2
Video
ID : 1
Format : AVC
Format/Info : Advanced Video Codec
Format profile : High@L4.1
Format settings, CABAC : Yes
Format settings, ReFrames : 4 frames
Codec ID : V_MPEG4/ISO/AVC
Duration : 1 h 26 min
Bit rate mode : Variable
Bit rate : 4 949 kb/s
Maximum bit rate : 5 500 kb/s
Width : 1 920 pixels
Height : 1 040 pixels
Display aspect ratio : 1.85:1
Frame rate mode : Constant
Frame rate : 25.000 FPS
Standard : Component
Color space : YUV
Chroma subsampling : 4:2:0
Bit depth : 8 bits
Scan type : Progressive
Bits/(Pixel*Frame) : 0.099
Stream size : 3.01 GiB (93%)
Default : Yes
Forced : No
Color range : Limited
Color primaries : BT.709
Transfer characteristics : BT.709
Matrix coefficients : BT.709
Audio
ID : 2
Format : AC-3
Format/Info : Audio Coding 3
Format settings, Endianness : Big
Codec ID : A_AC3
Duration : 1 h 26 min
Bit rate mode : Constant
Bit rate : 384 kb/s
Channel(s) : 2 channels
Channel positions : Front: L R
Sampling rate : 48.0 kHz
Frame rate : 31.250 FPS (1536 spf)
Bit depth : 16 bits
Compression mode : Lossy
Stream size : 239 MiB (7%)
Service kind : Complete Main
Default : Yes
Forced : No

[Цитировать]

WEB-DL вполне хорошее качество для просмотра. Что же, посмотрим и оценим данную 4 часть про Бойку. Позже отпишемся после просмотра, и конечно же, поддержу с раздачей.

[Цитировать]

Отличный фильмец! С хорошей задумкой, всё в стиле Юрия. Рекомендую к просмотру (10/10).

[Цитировать]



Показать сообщения:    

Текущее время: 24-Ноя 15:05

Часовой пояс: UTC + 6


Вы не можете начинать темы
Вы не можете отвечать на сообщения
Вы не можете редактировать свои сообщения
Вы не можете удалять свои сообщения
Вы не можете голосовать в опросах
Вы не можете прикреплять файлы к сообщениям
Вы не можете скачивать файлы

!ВНИМАНИЕ!
Сайт не предоставляет электронные версии произведений, а занимается лишь коллекционированием и каталогизацией ссылок, присылаемых и публикуемых на форуме нашими читателями. Если вы являетесь правообладателем какого-либо представленного материала и не желаете, чтобы ссылка на него находилась в нашем каталоге, свяжитесь с нами, и мы незамедлительно удалим ее. Файлы для обмена на трекере предоставлены пользователями сайта, и администрация не несет ответственности за их содержание. Просьба не заливать файлы, защищенные авторскими правами, а также файлы нелегального содержания!