[ Сегодня идет свободное скачивание без начисления Download ]


Статистика раздачи
Скачал: [ 12 ]
 
   
 
 
 
 
Великая стена / The Great Wall
«1700 лет ушло на строительство. 8851 км неприступных стен. Какой враг угрожал империи?»
Страна: США, Китай, Гонконг, Австралия, Канада
Год выпуска: 2016
Жанр: Фэнтези, боевик, триллер, приключения
Перевод: Дублированный [iTunes], оригинал (английский)
Субтитры: Русские
Продолжительность: 01:42:55-Режиссер: Чжан Имоу-В ролях: Мэтт Дэймон, Тянь Цзин, Педро Паскаль, Лу Хан, Уиллем Дефо, Энди Лау, Эдди Пэн, Нуман Акар, Кенни Лин, Ханьюй Чжан, Вики Юй, Лю Бин, Чжэн Кай, Джонни Чикко, Чэни Чэнь, Кэрри Ван-Сюжет фильма: Великую стену воздвигли, чтобы оградить Поднебесную от любых угроз, но с таким врагом не сталкивались даже самые отважные ее защитники. Если вторжение не остановить — мир будет уничтожен.- -Формат: MKV
Качество: WEB-DLRip-AVC-Видео: кодек: AVC, размер кадра: 1024x428, битрейт: 2083 Кбит/сек frame rate: 23,976 кадра/сек
Аудио#1:язык: Русский, кодек: AC-3, число каналов: 6 каналов, битрейт: 384 кб/с [DUB]
Аудио#2:язык: Английский, кодек: AC-3, число каналов: 2 канала, битрейт: 384 кб/с [ENG]
-

MI

General
Unique ID                      : 199349464395317142302113752003665349852 (0x95F94F6F02EC6A1BAFA4A76984AE4CDC)
Complete name                  : E:\1\Новая папка\The.Great.Wall.2016.D.WEB-DLRip.AVC.ExKinoRay.mkv
Format                         : Matroska
Format version                 : Version 2
File size                      : 2.05 GiB
Duration                       : 1 h 43 min
Overall bit rate               : 2 852 kb/s
Movie name                     : The Great Wall (2016) from ExKinoRay
Encoded date                   : UTC 2017-04-12 23:31:37
Writing application            : mkvmerge v5.8.0 ('No Sleep / Pillow') built on Sep  2 2012 15:37:04
Writing library                : libebml v1.2.3 + libmatroska v1.3.0
Video
ID                             : 1
Format                         : AVC
Format/Info                    : Advanced Video Codec
Format profile                 : High@L4.1
Format settings, CABAC         : Yes
Format settings, ReFrames      : 10 frames
Codec ID                       : V_MPEG4/ISO/AVC
Duration                       : 1 h 43 min
Bit rate                       : 2 083 kb/s
Width                          : 1 024 pixels
Height                         : 428 pixels
Display aspect ratio           : 2.40:1
Frame rate mode                : Constant
Frame rate                     : 23.976 (24000/1001) FPS
Color space                    : YUV
Chroma subsampling             : 4:2:0
Bit depth                      : 8 bits
Scan type                      : Progressive
Bits/(Pixel*Frame)             : 0.198
Stream size                    : 1.46 GiB (71%)
Title                          : Enigma
Writing library                : x264 core 144 r2525 40bb568
Encoding settings              : cabac=1 / ref=10 / deblock=1:-3:-3 / analyse=0x3:0x113 / me=umh / subme=10 / psy=1 / psy_rd=1.02:0.05 / mixed_ref=1 / me_range=32 / chroma_me=1 / trellis=2 / 8x8dct=1 / cqm=0 / deadzone=21,11 / fast_pskip=1 / chroma_qp_offset=-3 / threads=12 / lookahead_threads=3 / sliced_threads=0 / nr=0 / decimate=0 / interlaced=0 / bluray_compat=0 / constrained_intra=0 / bframes=10 / b_pyramid=2 / b_adapt=2 / b_bias=0 / direct=3 / weightb=1 / open_gop=0 / weightp=2 / keyint=240 / keyint_min=23 / scenecut=40 / intra_refresh=0 / rc_lookahead=40 / rc=2pass / mbtree=0 / bitrate=2083 / ratetol=1.0 / qcomp=0.60 / qpmin=0 / qpmax=51 / qpstep=4 / cplxblur=20.0 / qblur=0.5 / vbv_maxrate=50000 / vbv_bufsize=62500 / nal_hrd=none / filler=0 / ip_ratio=1.40 / pb_ratio=1.30 / aq=1:1.00
Language                       : English
Default                        : Yes
Forced                         : No
Color range                    : Limited
Color primaries                : BT.709
Transfer characteristics       : BT.709
Matrix coefficients            : BT.709
Audio #1
ID                             : 2
Format                         : AC-3
Format/Info                    : Audio Coding 3
Format settings, Endianness    : Big
Codec ID                       : A_AC3
Duration                       : 1 h 43 min
Bit rate mode                  : Constant
Bit rate                       : 384 kb/s
Channel(s)                     : 6 channels
Channel positions              : Front: L C R, Side: L R, LFE
Sampling rate                  : 48.0 kHz
Frame rate                     : 31.250 FPS (1536 spf)
Bit depth                      : 16 bits
Compression mode               : Lossy
Stream size                    : 283 MiB (13%)
Title                          : DUB, iTunes
Language                       : Russian
Service kind                   : Complete Main
Default                        : Yes
Forced                         : No
Audio #2
ID                             : 3
Format                         : AC-3
Format/Info                    : Audio Coding 3
Format settings, Endianness    : Big
Codec ID                       : A_AC3
Duration                       : 1 h 43 min
Bit rate mode                  : Constant
Bit rate                       : 384 kb/s
Channel(s)                     : 2 channels
Channel positions              : Front: L R
Sampling rate                  : 48.0 kHz
Frame rate                     : 31.250 FPS (1536 spf)
Bit depth                      : 16 bits
Compression mode               : Lossy
Stream size                    : 283 MiB (13%)
Language                       : English
Service kind                   : Complete Main
Default                        : No
Forced                         : No
Menu
00:00:00.000                   : en:1
00:05:59.359                   : en:2
00:11:48.541                   : en:3
00:16:54.680                   : en:4
00:20:14.254                   : en:5
00:25:12.010                   : en:6
00:28:56.317                   : en:7
00:33:58.744                   : en:8
00:37:55.147                   : en:9
00:42:43.935                   : en:10
00:46:19.942                   : en:11
00:50:28.690                   : en:12
00:56:47.068                   : en:13
01:01:59.046                   : en:14
01:07:13.819                   : en:15
01:12:09.531                   : en:16
01:18:21.861                   : en:17
01:23:26.081                   : en:18
01:27:27.155                   : en:19
01:31:15.383                   : en:20
Скриншоты:

[Цитировать]

Топик был перенесен из форума Фэнтези в форум Азиатские фильмы
D-r Woland_kz



Показать сообщения:    

Текущее время: 24-Сен 00:23

Часовой пояс: UTC + 6


Вы не можете начинать темы
Вы не можете отвечать на сообщения
Вы не можете редактировать свои сообщения
Вы не можете удалять свои сообщения
Вы не можете голосовать в опросах
Вы не можете прикреплять файлы к сообщениям
Вы не можете скачивать файлы

!ВНИМАНИЕ!
Сайт не предоставляет электронные версии произведений, а занимается лишь коллекционированием и каталогизацией ссылок, присылаемых и публикуемых на форуме нашими читателями. Если вы являетесь правообладателем какого-либо представленного материала и не желаете, чтобы ссылка на него находилась в нашем каталоге, свяжитесь с нами, и мы незамедлительно удалим ее. Файлы для обмена на трекере предоставлены пользователями сайта, и администрация не несет ответственности за их содержание. Просьба не заливать файлы, защищенные авторскими правами, а также файлы нелегального содержания!