[ Сегодня идет свободное скачивание без начисления Download ]


Статистика раздачи
Буду качать: [ 1 ]
Качаю: [ 1 ]
Скачал: [ 33 ]
 
   
 
 
 
 
Великая стена / The Great Wall (2016) WEB-DLRip [H.264/720p-LQ] [hand made 60fps]-«1700 лет ушло на строительство. 8851 км неприступных стен. Какой враг угрожал империи?»- Производство: Китай, США, Legendary East, Atlas Entertainment, China Film Group, Kava Productions, Le Vision Pictures, Legendary Entertainment
Жанр: Фэнтези, Боевик, Триллер, Приключения
Режиссер: Чжан Имоу
Продюсер: Эр Юн, Алекс Гартнер, Эрик Хедая
Актеры: Мэтт Дэймон, Цзин Тянь, Уиллем Дефо, Энди Лау, Педро Паскаль, Чжан Ханьюй, Лухан, Кенни Линь, Эдди Пэн, Хуан Сюань
Описание:
Великую стену воздвигли, чтобы оградить Поднебесную от любых угроз, но с таким врагом не сталкивались даже самые отважные ее защитники. Если вторжение не остановить — мир будет уничтожен.

Возраст: 12+ (зрителям, достигшим 12 лет)
Рейтинг MPAA: PG-13 (детям до 13 лет просмотр нежелателен)
Дата мировой премьеры: 6 декабря 2016
Дата российской премьеры: 16 февраля 2017, «UPI»
Продолжительность: 01:43:03
Качество видео: WEB-DLRip
Перевод: Дублированный (iTunes)
Субтитры: Русский (надписи - хардсаб)
Видео: AVC/H.264, 1280x536 (2.40:1), 6000 Kbps, 59.940 fps
Аудио: 48 kHz, AC3 Dolby Digital, 3/2 (L,C,R,l,r) + LFE ch, ~384 kbps

Mediainfo:

General
Unique ID : 193837193433447686603927681694417862707 (0x91D3AF7E09DEF89797B77548A4B4C033)
Complete name : E:\Video\60 fps\The Great Wall\The Great Wall (2016) WEB-DLRip [720p 60fps].mkv
Format : Matroska
Format version : Version 4 / Version 2
File size : 4.59 GiB
Duration : 1h 43mn
Overall bit rate : 6 377 Kbps
Movie name : The Great Wall (2016) - Release for HDCLUB
Encoded date : UTC 2017-04-16 01:29:54
Writing application : mkvmerge v7.7.0 ('Six Voices') 32bit built on Feb 28 2015 23:23:00
Writing library : libebml v1.3.1 + libmatroska v1.4.2
DURATION : 01:43:03.520000000
NUMBER_OF_FRAMES : 193235
NUMBER_OF_BYTES : 296808960
_STATISTICS_WRITING_APP : mkvmerge v7.7.0 ('Six Voices') 32bit built on Feb 28 2015 23:23:00
_STATISTICS_WRITING_DATE_UTC : 2017-04-16 01:29:54
_STATISTICS_TAGS : BPS DURATION NUMBER_OF_FRAMES NUMBER_OF_BYTES
Video
ID : 1
Format : AVC
Format/Info : Advanced Video Codec
Format profile : High@L4.1
Format settings, CABAC : Yes
Format settings, ReFrames : 5 frames
Codec ID : V_MPEG4/ISO/AVC
Duration : 1h 43mn
Bit rate : 6 000 Kbps
Width : 1 280 pixels
Height : 536 pixels
Display aspect ratio : 2.40:1
Frame rate mode : Constant
Frame rate : 60.000 fps
Original frame rate : 59.940 fps
Color space : YUV
Chroma subsampling : 4:2:0
Bit depth : 8 bits
Scan type : Progressive
Bits/(Pixel*Frame) : 0.146
Stream size : 4.22 GiB (92%)
Title : Rip by izomsk
Writing library : x264 core 148 r2638 7599210
Encoding settings : cabac=1 / ref=5 / deblock=1:-3:-3 / analyse=0x3:0x113 / me=umh / subme=9 / psy=1 / psy_rd=1.00:0.00 / mixed_ref=1 / me_range=32 / chroma_me=1 / trellis=1 / 8x8dct=1 / cqm=0 / deadzone=21,11 / fast_pskip=1 / chroma_qp_offset=-2 / threads=12 / lookahead_threads=1 / sliced_threads=0 / nr=0 / decimate=1 / interlaced=0 / bluray_compat=0 / constrained_intra=0 / bframes=3 / b_pyramid=2 / b_adapt=2 / b_bias=0 / direct=3 / weightb=1 / open_gop=0 / weightp=2 / keyint=1436 / keyint_min=141 / scenecut=40 / intra_refresh=0 / rc_lookahead=50 / rc=2pass / mbtree=1 / bitrate=6000 / ratetol=1.0 / qcomp=0.60 / qpmin=0 / qpmax=69 / qpstep=4 / cplxblur=20.0 / qblur=0.5 / vbv_maxrate=15000 / vbv_bufsize=15000 / nal_hrd=none / filler=0 / ip_ratio=1.40 / aq=1:1.00
Language : Russian
Default : Yes
Forced : No
Audio
ID : 2
Format : AC-3
Format/Info : Audio Coding 3
Mode extension : CM (complete main)
Format settings, Endianness : Big
Codec ID : A_AC3
Duration : 1h 43mn
Bit rate mode : Constant
Bit rate : 384 Kbps
Channel(s) : 6 channels
Channel positions : Front: L C R, Side: L R, LFE
Sampling rate : 48.0 KHz
Bit depth : 16 bits
Compression mode : Lossy
Stream size : 283 MiB (6%)
Title : AC3 5.1 @ 384 kbps - DUB, iTunes
Language : Russian
Default : Yes
Forced : No
Menu
00:00:00.000 : en:1
00:05:59.359 : en:2
00:11:48.541 : en:3
00:16:54.680 : en:4
00:20:14.254 : en:5
00:25:12.010 : en:6
00:28:56.317 : en:7
00:33:58.744 : en:8
00:37:55.147 : en:9
00:42:43.935 : en:10
00:46:19.942 : en:11
00:50:28.690 : en:12
00:56:47.068 : en:13
01:01:59.046 : en:14
01:07:13.819 : en:15
01:12:09.531 : en:16
01:18:21.861 : en:17
01:23:26.081 : en:18
01:27:27.155 : en:19
01:31:15.383 : en:20
Скриншоты:

[Цитировать]

Привет!, замени на 1080р http://kinohd.net/60fps/7405-9468721581ikaya-st8721ha-the-great-wall-2016.html

[Цитировать]

Спасибо

[Цитировать]



Показать сообщения:    

Текущее время: 26-Сен 02:39

Часовой пояс: UTC + 6


Вы не можете начинать темы
Вы не можете отвечать на сообщения
Вы не можете редактировать свои сообщения
Вы не можете удалять свои сообщения
Вы не можете голосовать в опросах
Вы не можете прикреплять файлы к сообщениям
Вы не можете скачивать файлы

!ВНИМАНИЕ!
Сайт не предоставляет электронные версии произведений, а занимается лишь коллекционированием и каталогизацией ссылок, присылаемых и публикуемых на форуме нашими читателями. Если вы являетесь правообладателем какого-либо представленного материала и не желаете, чтобы ссылка на него находилась в нашем каталоге, свяжитесь с нами, и мы незамедлительно удалим ее. Файлы для обмена на трекере предоставлены пользователями сайта, и администрация не несет ответственности за их содержание. Просьба не заливать файлы, защищенные авторскими правами, а также файлы нелегального содержания!