[ Сегодня идет свободное скачивание без начисления Download ]


Статистика раздачи
Нет
 
   
 
 
 
 
Enigma - Enigma V: Dream On (2000) Full Version, Bootleg - Жанр: New Age, Downtempo, Ambient
Издание: Not On Label (Enigma) - none
Продолжительность: 01:13:48
Кодек: FLAC
Битрейт: Lossless
Тип рипа: tracks + .cue
Треклист:
01. Enigma - Sadeness Part I (Meditation Mix) 3:00
02. Enigma - Mea Culpa Part II (Fading Shades Mix) 6:13
03. Andru Donalds - Simple Obsession 4:07
04. Andru Donalds - Wating For The Hurricane 4:45
05. Andru Donalds - All Out Of Love 4:10
06. Andru Donalds - Just For The Day 3:28
07. Enigma - Sadeness Part I (Extended Trance Mix) 5:01
08. Enigma - Mea Culpa Part II (Orthodox Version) 4:00
09. Andru Donalds - Lovelight In Your Eyes 5:47
10. Andru Donalds - Holding On To You 3:41
11. Andru Donalds - Without A Sound 3:34
12. Andru Donalds - Power Of The Loser 4:16
13. Enigma - Mea Culpa Part II (Catholic Version) 3:55
14. Enigma - Sadeness Part I (Violent US Remix) 5:03
15. Andru Donalds - Dream On 3:38
16. Andru Donalds - Snowin' Under My Skin 8:39

Дополнительная информация:

Разобраться с этим "альбомом" просто. Не долго думая, "пираты" (опять, кстати, российские) поместили на него ремиксы на композиции Enigma вперемешку с треками альбома "Snowin' Under My Skin" (1999) Эндрю Дональдса (Andru Donalds, его, кстати продюсирует Майкл Крету). Причём, композиции Эндрю Дональдса идут в точности в том же порядке, что и в его собственном альбоме.
Существует также и второй, урезанный вариант этого диска. Его обложка немного отличается общей тональностью (более теплые цвета) и отсутствием надписи "Full Version" в левом нижнем углу. На другой стороне обложки перечислен список треков - все 10 композиций альбома "Snowin' Under My Skin", чем этот диск на самом деле и является (т.е. с него исключены ремиксы Enigma).

Отчёт EAC:

Отчёт EAC об извлечении, выполненном 6. марта 2008, 7:44 для диска:
Enigma V (piracy mixed) / Dream On
Дисковод: PLEXTOR DVDR PX-760A Adapter: 1 ID: 0
Режим чтения: Достоверный (C2: нет, Точный поток: да, Отключение кэша: да)
Коррекция смещения при чтении: 30
Способность читать области Lead-in и Lead-out : Да
Выходной формат: C:\Program Files\FLAC\flac.exe (Пользовательский кодировщик)
320 kBit/s
Дополнительные параметры: -8 -V -T "ARTIST=%a" -T "TITLE=%t" -T "ALBUM=%g" -T "DATE=%y" -T "TRACKNUMBER=%n" -T "GENRE=%m" -T "COMMENT=EAC FLAC -8" %s
Другие параметры:
Заполнение пропущенных сэмплов тишиной : Да
Удаление блоков с тишиной в начале и конце : Нет
Встроенный Win32-интерфейс для Win NT/2000
Трек 1
Имя файла C:\APE\Enigma\Bootleg\Enigma V - Dream On\01 - Enigma , Sadeness - (Meditation Mix).wav
Длина предзазора 0:00:02.00
Пиковый уровень 99.0 %
Качество трека 100.0 %
CRC теста 27F7EB7A
CRC копии 27F7EB7A
Копирование... OK
Трек 2
Имя файла C:\APE\Enigma\Bootleg\Enigma V - Dream On\02 - Enigma , Mea Culpa - (Fading Shades Mix).wav
Пиковый уровень 99.0 %
Качество трека 100.0 %
CRC теста 08848E23
CRC копии 08848E23
Копирование... OK
Трек 3
Имя файла C:\APE\Enigma\Bootleg\Enigma V - Dream On\03 - Andru Donalds , Simple Obsession.wav
Пиковый уровень 99.0 %
Качество трека 100.0 %
CRC теста D5BD3407
CRC копии D5BD3407
Копирование... OK
Трек 4
Имя файла C:\APE\Enigma\Bootleg\Enigma V - Dream On\04 - Andru Donalds , Waiting For The Hurricane.wav
Длина предзазора 0:00:00.06
Пиковый уровень 99.0 %
Качество трека 100.0 %
CRC теста 0D2F50C8
CRC копии 0D2F50C8
Копирование... OK
Трек 5
Имя файла C:\APE\Enigma\Bootleg\Enigma V - Dream On\05 - Andru Donalds , All Out Of Love.wav
Пиковый уровень 99.0 %
Качество трека 99.9 %
CRC теста 6A8FF14B
CRC копии 6A8FF14B
Копирование... OK
Трек 6
Имя файла C:\APE\Enigma\Bootleg\Enigma V - Dream On\06 - Andru Donalds , Just For The Day.wav
Длина предзазора 0:00:00.05
Пиковый уровень 99.0 %
Качество трека 100.0 %
CRC теста E24DAA39
CRC копии E24DAA39
Копирование... OK
Трек 7
Имя файла C:\APE\Enigma\Bootleg\Enigma V - Dream On\07 - Enigma , Sadeness - (Extended Trance Mix).wav
Длина предзазора 0:00:00.06
Пиковый уровень 99.0 %
Качество трека 100.0 %
CRC теста 2164784E
CRC копии 2164784E
Копирование... OK
Трек 8
Имя файла C:\APE\Enigma\Bootleg\Enigma V - Dream On\08 - Enigma , Mea Culpa - (Orthodox Version).wav
Пиковый уровень 99.0 %
Качество трека 100.0 %
CRC теста F18B272F
CRC копии F18B272F
Копирование... OK
Трек 9
Имя файла C:\APE\Enigma\Bootleg\Enigma V - Dream On\09 - Andru Donalds , Lovelight In Your Eyes.wav
Пиковый уровень 99.0 %
Качество трека 99.9 %
CRC теста D4C6680E
CRC копии D4C6680E
Копирование... OK
Трек 10
Имя файла C:\APE\Enigma\Bootleg\Enigma V - Dream On\10 - Andru Donalds , Holdin' On To You.wav
Пиковый уровень 99.0 %
Качество трека 100.0 %
CRC теста 07C88FFF
CRC копии 07C88FFF
Копирование... OK
Трек 11
Имя файла C:\APE\Enigma\Bootleg\Enigma V - Dream On\11 - Andru Donalds , Without A Sound.wav
Пиковый уровень 99.0 %
Качество трека 100.0 %
CRC теста 760BCCA6
CRC копии 760BCCA6
Копирование... OK
Трек 12
Имя файла C:\APE\Enigma\Bootleg\Enigma V - Dream On\12 - Andru Donalds , Power Of The Loser.wav
Длина предзазора 0:00:00.02
Пиковый уровень 99.0 %
Качество трека 100.0 %
CRC теста 4C59C1AF
CRC копии 4C59C1AF
Копирование... OK
Трек 13
Имя файла C:\APE\Enigma\Bootleg\Enigma V - Dream On\13 - Enigma , Mea Culpa (Catholic Version).wav
Пиковый уровень 99.0 %
Качество трека 100.0 %
CRC теста 85B69152
CRC копии 85B69152
Копирование... OK
Трек 14
Имя файла C:\APE\Enigma\Bootleg\Enigma V - Dream On\14 - Enigma , Sadeness - (Violent Us Remix).wav
Пиковый уровень 99.0 %
Качество трека 100.0 %
CRC теста ACEB50BC
CRC копии ACEB50BC
Копирование... OK
Трек 15
Имя файла C:\APE\Enigma\Bootleg\Enigma V - Dream On\15 - Andru Donalds , Dream On.wav
Пиковый уровень 99.0 %
Качество трека 100.0 %
CRC теста 637BB4B4
CRC копии 637BB4B4
Копирование... OK
Трек 16
Имя файла C:\APE\Enigma\Bootleg\Enigma V - Dream On\16 - Andru Donalds , Snowin' Under My Skin.wav
Пиковый уровень 99.0 %
Качество трека 100.0 %
CRC теста A2FBAD7E
CRC копии A2FBAD7E
Копирование... OK
Ошибок не произошло
Конец отчёта

Cue Sheet (.cue):

REM GENRE "New Age"
REM DATE 2000
REM COMMENT "ExactAudioCopy v0.95b4"
PERFORMER "Enigma V (piracy mixed)"
TITLE "Dream On"
FILE "01 - Enigma , Sadeness - (Meditation Mix).flac" WAVE
TRACK 01 AUDIO
PERFORMER "Enigma"
TITLE "Sadeness Part I (Meditation Mix)"
INDEX 01 00:00:00
FILE "02 - Enigma , Mea Culpa - (Fading Shades Mix).flac" WAVE
TRACK 02 AUDIO
PERFORMER "Enigma"
TITLE "Mea Culpa Part II (Fading Shades Mix)"
INDEX 01 00:00:00
FILE "03 - Andru Donalds , Simple Obsession.flac" WAVE
TRACK 03 AUDIO
PERFORMER "Andru Donalds"
TITLE "Simple Obsession"
INDEX 01 00:00:00
FILE "04 - Andru Donalds , Waiting For The Hurricane.flac" WAVE
TRACK 04 AUDIO
PERFORMER "Andru Donalds"
TITLE "Waiting For The Hurricane"
INDEX 01 00:00:00
FILE "05 - Andru Donalds , All Out Of Love.flac" WAVE
TRACK 05 AUDIO
PERFORMER "Andru Donalds"
TITLE "All Out Of Love"
INDEX 01 00:00:00
FILE "06 - Andru Donalds , Just For The Day.flac" WAVE
TRACK 06 AUDIO
PERFORMER "Andru Donalds"
TITLE "Just For The Day"
INDEX 01 00:00:00
FILE "07 - Enigma , Sadeness - (Extended Trance Mix).flac" WAVE
TRACK 07 AUDIO
PERFORMER "Enigma"
TITLE "Sadeness Part I (Extended Trance Mix)"
INDEX 01 00:00:00
FILE "08 - Enigma , Mea Culpa - (Orthodox Version).flac" WAVE
TRACK 08 AUDIO
PERFORMER "Enigma"
TITLE "Mea Culpa Part II (Orthodox Version)"
INDEX 01 00:00:00
FILE "09 - Andru Donalds , Lovelight In Your Eyes.flac" WAVE
TRACK 09 AUDIO
PERFORMER "Andru Donalds"
TITLE "Lovelight In Your Eyes"
INDEX 01 00:00:00
FILE "10 - Andru Donalds , Holdin' On To You.flac" WAVE
TRACK 10 AUDIO
PERFORMER "Andru Donalds"
TITLE "Holdin' On To You"
INDEX 01 00:00:00
FILE "11 - Andru Donalds , Without A Sound.flac" WAVE
TRACK 11 AUDIO
PERFORMER "Andru Donalds"
TITLE "Without A Sound"
INDEX 01 00:00:00
FILE "12 - Andru Donalds , Power Of The Loser.flac" WAVE
TRACK 12 AUDIO
PERFORMER "Andru Donalds"
TITLE "Power Of The Loser"
INDEX 01 00:00:00
FILE "13 - Enigma , Mea Culpa (Catholic Version).flac" WAVE
TRACK 13 AUDIO
PERFORMER "Enigma"
TITLE "Mea Culpa Part II (Catholic Version)"
INDEX 01 00:00:00
FILE "14 - Enigma , Sadeness - (Violent Us Remix).flac" WAVE
TRACK 14 AUDIO
PERFORMER "Enigma"
TITLE "Sadeness Part I (Violent US Remix)"
INDEX 01 00:00:00
FILE "15 - Andru Donalds , Dream On.flac" WAVE
TRACK 15 AUDIO
PERFORMER "Andru Donalds"
TITLE "Dream On"
INDEX 01 00:00:00
FILE "16 - Andru Donalds , Snowin' Under My Skin.flac" WAVE
TRACK 16 AUDIO
PERFORMER "Andru Donalds"
TITLE "Snowin' Under My Skin"
INDEX 01 00:00:00

Отчёт auCDtect Task manager:

-----------------------
DON'T MODIFY THIS FILE
-----------------------
PERFORMER: auCDtect Task Manager, ver. 1.6.0 RC1 build 1.6.0.1
Copyright (c) 2008-2010 y-soft. All rights reserved
ANALYZER: auCDtect: CD records authenticity detector, version 0.8.2
Copyright (c) 2004 Oleg Berngardt. All rights reserved.
Copyright (c) 2004 Alexander Djourik. All rights reserved.
FILE: 16 - Andru Donalds , Snowin' Under My Skin.flac
Size: 59889764 Hash: CE9BB68B0D91B531B1E6E215609A917D Accuracy: -m0
Conclusion: CDDA 100%
Signature: F23F3517F3902D8911FDC9B02173A633B2DC2C45
FILE: 15 - Andru Donalds , Dream On.flac
Size: 25117599 Hash: 85B5E4B37BCAF5BB1C60C1899954497C Accuracy: -m0
Conclusion: CDDA 100%
Signature: 64AA5BDAB63F8D3F7A3473BE1ECE489167EF5500
FILE: 14 - Enigma , Sadeness - (Violent Us Remix).flac
Size: 36643489 Hash: C1D0506E2DFDAA7848D51A13CD1F708E Accuracy: -m0
Conclusion: CDDA 100%
Signature: 154816B23C2CB2566394A3BC19308EF6B0A7CFE7
FILE: 13 - Enigma , Mea Culpa (Catholic Version).flac
Size: 27274554 Hash: CCAD6E05CAEAA8ECE719291BE934744D Accuracy: -m0
Conclusion: CDDA 100%
Signature: FFBB55E4B178B4F0540E83B3CBCFB1815F51B0D2
FILE: 12 - Andru Donalds , Power Of The Loser.flac
Size: 29410576 Hash: 1455A51B1B8D4E5F0C133C841E32EE35 Accuracy: -m0
Conclusion: CDDA 100%
Signature: 086146F45203B007A82596D248E3FC0486EF1B3F
FILE: 11 - Andru Donalds , Without A Sound.flac
Size: 20875682 Hash: F2EBAA9CF2B34DC05105270BCA386E07 Accuracy: -m0
Conclusion: CDDA 100%
Signature: B325BD435DD942D5FC9719DD543C419112C0A75E
FILE: 10 - Andru Donalds , Holdin' On To You.flac
Size: 26059049 Hash: 48F696F096F2620ABDDD132A730DC1EB Accuracy: -m0
Conclusion: CDDA 100%
Signature: F1D95A3D502B6A9EFBADB48D8D2F7500BE9AD09C
FILE: 09 - Andru Donalds , Lovelight In Your Eyes.flac
Size: 38152129 Hash: 743B60390D87D541E797B2A5188C0CC3 Accuracy: -m0
Conclusion: CDDA 100%
Signature: B5C3389E6B9B5D33416FC8093177D48925A0C2AC
FILE: 08 - Enigma , Mea Culpa - (Orthodox Version).flac
Size: 28330968 Hash: 1A44C72DF4403869E822E0D3E366FBFB Accuracy: -m0
Conclusion: CDDA 100%
Signature: 6524DC2C00BAA2707825E106B4E871157DE15AAA
FILE: 07 - Enigma , Sadeness - (Extended Trance Mix).flac
Size: 37450463 Hash: AB54AA1EFF4A231C132245271916336F Accuracy: -m0
Conclusion: CDDA 99%
Signature: E73DD64933CCE9B2AA97F5459BF7A16286DC08BA
FILE: 06 - Andru Donalds , Just For The Day.flac
Size: 22577543 Hash: C8BD8C575BD03B7B7E9F704F6BD9D282 Accuracy: -m0
Conclusion: CDDA 99%
Signature: 4BCC8451AE4EEB23F9C5583C38C7047682C001F7
FILE: 05 - Andru Donalds , All Out Of Love.flac
Size: 28937064 Hash: 9EDF1A00F610B3D2405BE1C8811DE5C8 Accuracy: -m0
Conclusion: CDDA 100%
Signature: 3097B156A99005B0FF3A16822BA83DB4F574A864
FILE: 04 - Andru Donalds , Waiting For The Hurricane.flac
Size: 32408910 Hash: EC35D9C1B5668E56CE0499E443430F8C Accuracy: -m0
Conclusion: CDDA 100%
Signature: 1D02AB4118A583B9B2E99CB3BCF805F77AEED8B1
FILE: 03 - Andru Donalds , Simple Obsession.flac
Size: 27986304 Hash: 9A06DD64269CC4650BF4027A9106E570 Accuracy: -m0
Conclusion: CDDA 100%
Signature: 97805515FE786FCAB76B63B6DB23FBC7DA98C48D
FILE: 02 - Enigma , Mea Culpa - (Fading Shades Mix).flac
Size: 44395829 Hash: B44DD05D1A68D886F997FED9DCD88137 Accuracy: -m0
Conclusion: CDDA 100%
Signature: AF31F4108100D5094F7F660FD184646FF65DBE9B
FILE: 01 - Enigma , Sadeness - (Meditation Mix).flac
Size: 20948533 Hash: 9ACD001B1F2DECB563BD3FF247D2213A Accuracy: -m0
Conclusion: CDDA 99%
Signature: A340C5C8C5806C381FF3DA5C7949717FF359745D

[Цитировать]



Показать сообщения:    

Текущее время: 18-Окт 21:24

Часовой пояс: UTC + 6


Вы не можете начинать темы
Вы не можете отвечать на сообщения
Вы не можете редактировать свои сообщения
Вы не можете удалять свои сообщения
Вы не можете голосовать в опросах
Вы не можете прикреплять файлы к сообщениям
Вы не можете скачивать файлы

!ВНИМАНИЕ!
Сайт не предоставляет электронные версии произведений, а занимается лишь коллекционированием и каталогизацией ссылок, присылаемых и публикуемых на форуме нашими читателями. Если вы являетесь правообладателем какого-либо представленного материала и не желаете, чтобы ссылка на него находилась в нашем каталоге, свяжитесь с нами, и мы незамедлительно удалим ее. Файлы для обмена на трекере предоставлены пользователями сайта, и администрация не несет ответственности за их содержание. Просьба не заливать файлы, защищенные авторскими правами, а также файлы нелегального содержания!