[ Сегодня идет свободное скачивание без начисления Download ]


Статистика раздачи
Нет
 
   
 
Top  
 
 
- Страстный Мадагаскар / Madly Madagascar (2013) DVDRip - Русское название: Страстный Мадагаскар
Оригинальное название: Madly Madagascar
Год выпуска: 2013
Жанр: Мультфильм
Описание:
История, рассказанная в этом мультфильме, произошла с любимыми героями между второй и третьей частями, как раз накануне Дня Святого Валентина. Алекс очень любит этот праздник и всегда тщательно к нему готовится, ведь он уверен, что только любовь может спасти весь мир. Раньше он получал тонны открыток на этот праздник от поклонниц, но в Африке не принято праздновать его, и он собирается вместе со своими друзьями организовать настоящее торжество по случаю Дня Всех Влюбленных.
Режиссёр: Дэвид Сорен
Роли озвучивали: Бен Стиллер, Саша Барон Коэн, Дэвид Швиммер, Фрэнсис МакДорманд, Крис Рок, Джада Пинкетт Смит.
Перевод: Полное дублирование
Продолжительность: ~ 00:22:07
Видеокодек: XVID
Битрейт видео: ~1994 kb/s
Размер кадра: 720 x 400
Качество видео: DVDRip
Аудио (русский): AC-3, 2ch., 192 kb/s

MediaInfo

Формат : AVI
Формат/Информация : Audio Video Interleave
Размер файла : 347 Мбайт
Продолжительность : 22 м.
Общий поток : 2196 Кбит/сек
Программа кодирования : VirtualDubModRus 1.5.10.1 (build 2439/release)
Библиотека кодирования : VirtualDubMod build 2439/release
Видео
Идентификатор : 0
Формат : MPEG-4 Visual
Профиль формата : Advanced Simple@L5
Параметр BVOP формата : 2
Параметр QPel формата : Нет
Параметр GMC формата : Без точки перехода
Параметр матрицы формата : Выборочная
Идентификатор кодека : XVID
Идентификатор кодека/Подсказка : XviD
Продолжительность : 22 м.
Битрейт : 1994 Кбит/сек
Ширина : 720 пикселей
Высота : 400 пикселей
Соотношение сторон : 16:9
Частота кадров : 23,976 кадра/сек
Цветовое пространство : YUV
Субдискретизация насыщенности : 4:2:0
Битовая глубина : 8 бит
Тип развёртки : Прогрессивная
Метод сжатия : С потерями
Бит/(Пиксели*Кадры) : 0.289
Размер потока : 316 Мбайт (91%)
Библиотека кодирования : XviD 65
Аудио
Идентификатор : 1
Формат : AC-3
Формат/Информация : Audio Coding 3
Расширение режима : CM (complete main)
Идентификатор кодека : 2000
Продолжительность : 22 м.
Вид битрейта : Постоянный
Битрейт : 192 Кбит/сек
Каналы : 2 канала
Расположение каналов : Front: L R
Частота : 48,0 КГц
Битовая глубина : 16 бит
Метод сжатия : С потерями
Размер потока : 30,4 Мбайт (9%)
Выравнивание : Разделение по промежуткам
Продолжительность промежутка : 42 мс. (1,00 видеокадр)
Время предзагрузки промежутка : 500 мс.
Скриншоты:

[Цитировать]



Показать сообщения:    

Текущее время: 21-Авг 02:55

Часовой пояс: UTC + 6


Вы не можете начинать темы
Вы не можете отвечать на сообщения
Вы не можете редактировать свои сообщения
Вы не можете удалять свои сообщения
Вы не можете голосовать в опросах
Вы не можете прикреплять файлы к сообщениям
Вы не можете скачивать файлы

!ВНИМАНИЕ!
Сайт не предоставляет электронные версии произведений, а занимается лишь коллекционированием и каталогизацией ссылок, присылаемых и публикуемых на форуме нашими читателями. Если вы являетесь правообладателем какого-либо представленного материала и не желаете, чтобы ссылка на него находилась в нашем каталоге, свяжитесь с нами, и мы незамедлительно удалим ее. Файлы для обмена на трекере предоставлены пользователями сайта, и администрация не несет ответственности за их содержание. Просьба не заливать файлы, защищенные авторскими правами, а также файлы нелегального содержания!