[ Сегодня идет свободное скачивание без начисления Download ]


Статистика раздачи
Скачал: [ 11 ]
 
   
 
 
 
 
Семейное ограбление / Mes trésors (2016) WEB-DLDRip-AVC Информация о фильме
Название: Семейное ограбление
Оригинальное название: Family Heist / Mes trsors
Год выхода: 2016
Жанр: комедия
Режиссер: Паскаль Бурдьо
В ролях: Жан Рено, Рем Кериси, Камиль Шаму, Бруно Санчес, Паскаль Демолон, Жан Ренес, Марион Брие, Юже Тьерри, Зина Есепчук
О фильме: Анжела и Анжелика – две абсолютно разные девушки, которые не имеют ничего общего. Кроме, разве что, отца, которого они никогда не видели. И вот однажды он появился в их жизни. Вор международного масштаба решил наверстать упущенное, создав с дочерьми безумную команду, чтобы совершить ограбление века. И все бы ничего, только гениальный план Патрика дает сбой, и все идет не по запланированному сценарию…

Страна: Франция
Продолжительность: 01:27:01
Перевод: Дублированный | iTunes
Файл
Кодек: h.264
Качество: WEB-DLRip-AVC
Видео: 1040x432 (2.40:1), 25.000 fps, AVC MPEG-4 (x264), [email protected]/* */, ~ 2020 kbps avg, 0.180 bit/pixel
Звук: AC3, 6 ch, 384 kbps
Субтитры: Нет

MediaInfo:

General
Unique ID : 238670235858095138143304440887482842780 (0xB38E3724EEEABA249DB3B5C95BA0FE9C)
Complete name : D:TorrentFamily.Heist.2017.WEB-DLRip-AVC.1.46Gb.MegaPeer.mkv
Format : Matroska
Format version : Version 4 / Version 2
File size : 1.46 GiB
Duration : 1 h 27 min
Overall bit rate : 2 405 kb/s
Encoded date : UTC 2017-05-08 18:39:08
Writing application : mkvmerge v6.1.0 ('Old Devil') built on Mar 4 2013 09:10:42
Writing library : libebml v1.3.0 + libmatroska v1.4.0
Video
ID : 1
Format : AVC
Format/Info : Advanced Video Codec
Format profile : High@L4.1
Format settings, CABAC : Yes
Format settings, ReFrames : 12 frames
Codec ID : V_MPEG4/ISO/AVC
Duration : 1 h 27 min
Bit rate : 2 020 kb/s
Width : 1 040 pixels
Height : 432 pixels
Display aspect ratio : 2.40:1
Frame rate mode : Constant
Frame rate : 25.000 FPS
Color space : YUV
Chroma subsampling : 4:2:0
Bit depth : 8 bits
Scan type : Progressive
Bits/(Pixel*Frame) : 0.180
Stream size : 1.20 GiB (82%)
Writing library : x264 core 130 r2273 b3065e6
Encoding settings : cabac=1 / ref=12 / deblock=1:-1:-1 / analyse=0x3:0x113 / me=umh / subme=11 / psy=1 / psy_rd=1.00:0.10 / mixed_ref=1 / me_range=48 / chroma_me=1 / trellis=2 / 8x8dct=1 / cqm=0 / deadzone=21,11 / fast_pskip=0 / chroma_qp_offset=-3 / threads=12 / lookahead_threads=2 / sliced_threads=0 / nr=0 / decimate=0 / interlaced=0 / bluray_compat=0 / constrained_intra=0 / bframes=9 / b_pyramid=2 / b_adapt=2 / b_bias=0 / direct=3 / weightb=1 / open_gop=0 / weightp=2 / keyint=250 / keyint_min=25 / scenecut=40 / intra_refresh=0 / rc=2pass / mbtree=0 / bitrate=2020 / ratetol=1.0 / qcomp=0.60 / qpmin=0 / qpmax=69 / qpstep=4 / cplxblur=20.0 / qblur=0.5 / ip_ratio=1.40 / pb_ratio=1.30 / aq=1:1.00
Default : Yes
Forced : No
Audio
ID : 2
Format : AC-3
Format/Info : Audio Coding 3
Format settings, Endianness : Big
Codec ID : A_AC3
Duration : 1 h 27 min
Bit rate mode : Constant
Bit rate : 384 kb/s
Channel(s) : 6 channels
Channel positions : Front: L C R, Side: L R, LFE
Sampling rate : 48.0 kHz
Frame rate : 31.250 FPS (1536 spf)
Bit depth : 16 bits
Compression mode : Lossy
Stream size : 239 MiB (16%)
Service kind : Complete Main
Default : Yes
Forced : No
Menu
00:00:00.000 : :Chapitre 1
00:09:54.840 : :Chapitre 2
00:20:55.960 : :Chapitre 3
00:30:01.160 : :Chapitre 4
00:40:59.640 : :Chapitre 5
00:51:13.800 : :Chapitre 6
01:00:03.280 : :Chapitre 7
01:09:59.040 : :Chapitre 8
01:17:48.680 : :Chapitre 9
01:23:10.800 : :Chapitre 10

Скриншоты

[Цитировать]



Показать сообщения:    

Текущее время: 26-Сен 06:06

Часовой пояс: UTC + 6


Вы не можете начинать темы
Вы не можете отвечать на сообщения
Вы не можете редактировать свои сообщения
Вы не можете удалять свои сообщения
Вы не можете голосовать в опросах
Вы не можете прикреплять файлы к сообщениям
Вы не можете скачивать файлы

!ВНИМАНИЕ!
Сайт не предоставляет электронные версии произведений, а занимается лишь коллекционированием и каталогизацией ссылок, присылаемых и публикуемых на форуме нашими читателями. Если вы являетесь правообладателем какого-либо представленного материала и не желаете, чтобы ссылка на него находилась в нашем каталоге, свяжитесь с нами, и мы незамедлительно удалим ее. Файлы для обмена на трекере предоставлены пользователями сайта, и администрация не несет ответственности за их содержание. Просьба не заливать файлы, защищенные авторскими правами, а также файлы нелегального содержания!