[ Сегодня идет свободное скачивание без начисления Download ]


Статистика раздачи
Скачал: [ 4 ]
 
   
 
 
 
 
Птичка на проводе / Bird on a Wire (1990) BDRip-AVC- Производство: США / Interscope Communications, The Badham-Cohen Group, Universal Pictures
Жанр: Боевик, Триллер, Комедия, Приключения
Режиссер: Джон Бэдэм
Продюсер: Роб Коэн, Фитч Кэди, Роберт В. Корт
Актеры: Мэл Гибсон, Голди Хоун, Дэвид Кэрредин, Билл Дьюк, Стивен Тоболовски, Джоан Северанс, Гарри Цезар, Джефф Кори, Алекс Брухански, Джон Пайпер-Фергюсон
Описание:
Дела Рика Джармина, живущего тайной жизнью по специально разработанной ФБР программе защиты свидетелей, складывается не лучшим образом. Дело в том, что пятнадцать лет назад он дал показания против полицейского, промышляющего торговлей наркотиками, что позволило усадить негодяя за решетку. Преступник, отсидевший свой срок, решает отомстить «стукачу» и начинает охоту на Джармина. Случайно Рик сталкивается с Мэриэнн Грэйвз, своей бывшей невестой. Мэриэнн, естественно, узнает его, что облегчает задачу убийцам, следующим за Джармином по пятам. Теперь бывшим возлюбленным вместе предстоит спасаться от злодеев, но именно это помогает им вернуть утраченную любовь.


Возраст: 16+ (зрителям, достигшим 16 лет)
Рейтинг MPAA: PG-13 (детям до 13 лет просмотр нежелателен)
Продолжительность: 01:50:34
Качество видео: BDRip-AVC [sample]
Перевод: Многоголосый, двуголосый закадровый, авторский
Субтитры: Русские, английские
Видео: AVC/H.264, 1024x432, ~2650 Kbps
Аудио 1: Русский, AC3, 2 ch, 192 Kbps, 48.0 kHz (MVO, Неоклассика)
Аудио 2: Русский, AC3, 2 ch, 192 Kbps, 48.0 kHz (MVO, HTB)
Аудио 3: Русский, AC3, 2 ch, 128 Kbps, 48.0 kHz (DVO, ОРТ)
Аудио 4: Русский, AC3, 2 ch, 192 Kbps, 48.0 kHz (DVO, HTB+)
Аудио 5: Русский, AC3, 2 ch, 192 Kbps, 48.0 kHz (AVO, А.Гаврилов)
Аудио 6: Русский, AC3, 2 ch, 192 Kbps, 48.0 kHz (AVO, М.Яроцкий)
Аудио 7: Английский, AC3, 2 ch, 192 Kbps, 48.0 kHz (Оригинал)

Mediainfo:

General
Unique ID : 193128886880032202126638859274517010639 (0x914B454874C56D428A8D01894484D8CF)
Complete name : F:\Downloads\Птичка на проводе. 1990. NNMCLUB.mkv
Format : Matroska
Format version : Version 4 / Version 2
File size : 3.09 GiB
Duration : 1h 50mn
Overall bit rate : 3 996 Kbps
Encoded date : UTC 2017-05-07 06:08:39
Writing application : mkvmerge v7.0.0 ('Where We Going') 32bit built on Jun 9 2014 15:08:34
Writing library : libebml v1.3.0 + libmatroska v1.4.1
_STATISTICS_WRITING_APP : mkvmerge v7.0.0 ('Where We Going') 32bit built on Jun 9 2014 15:08:34
_STATISTICS_WRITING_DATE_UTC : 2017-05-07 06:08:39
_STATISTICS_TAGS : BPS DURATION NUMBER_OF_FRAMES NUMBER_OF_BYTES
DURATION : 01:50:34.656000000
NUMBER_OF_FRAMES : 207333
NUMBER_OF_BYTES : 159231744
Video
ID : 1
Format : AVC
Format/Info : Advanced Video Codec
Format profile : High@L4.1
Format settings, CABAC : Yes
Format settings, ReFrames : 12 frames
Codec ID : V_MPEG4/ISO/AVC
Duration : 1h 50mn
Bit rate : 2 650 Kbps
Width : 1 024 pixels
Height : 432 pixels
Display aspect ratio : 2.40:1
Frame rate mode : Constant
Frame rate : 23.976 fps
Color space : YUV
Chroma subsampling : 4:2:0
Bit depth : 8 bits
Scan type : Progressive
Bits/(Pixel*Frame) : 0.250
Stream size : 1.99 GiB (64%)
Title : Bird on a Wire
Writing library : x264 core 125 r2208 d9d2288
Encoding settings : cabac=1 / ref=12 / deblock=1:-1:-1 / analyse=0x3:0x133 / me=umh / subme=10 / psy=1 / psy_rd=1.00:0.10 / mixed_ref=1 / me_range=32 / chroma_me=1 / trellis=2 / 8x8dct=1 / cqm=0 / deadzone=21,11 / fast_pskip=0 / chroma_qp_offset=-3 / threads=6 / lookahead_threads=1 / sliced_threads=0 / nr=0 / decimate=0 / interlaced=0 / bluray_compat=0 / constrained_intra=0 / bframes=7 / b_pyramid=2 / b_adapt=2 / b_bias=0 / direct=3 / weightb=1 / open_gop=0 / weightp=2 / keyint=250 / keyint_min=25 / scenecut=40 / intra_refresh=0 / rc_lookahead=60 / rc=2pass / mbtree=1 / bitrate=2650 / ratetol=1.0 / qcomp=0.60 / qpmin=0 / qpmax=69 / qpstep=4 / cplxblur=20.0 / qblur=0.5 / ip_ratio=1.40 / aq=1:1.00
Language : English
Default : Yes
Forced : No
Audio #1
ID : 2
Format : AC-3
Format/Info : Audio Coding 3
Mode extension : CM (complete main)
Format settings, Endianness : Big
Codec ID : A_AC3
Duration : 1h 50mn
Bit rate mode : Constant
Bit rate : 192 Kbps
Channel(s) : 2 channels
Channel positions : Front: L R
Sampling rate : 48.0 KHz
Bit depth : 16 bits
Compression mode : Lossy
Stream size : 152 MiB (5%)
Title : MVO, Неоклассика
Language : Russian
Default : Yes
Forced : No
Audio #2
ID : 3
Format : AC-3
Format/Info : Audio Coding 3
Mode extension : CM (complete main)
Format settings, Endianness : Big
Codec ID : A_AC3
Duration : 1h 50mn
Bit rate mode : Constant
Bit rate : 192 Kbps
Channel(s) : 2 channels
Channel positions : Front: L R
Sampling rate : 48.0 KHz
Bit depth : 16 bits
Compression mode : Lossy
Stream size : 152 MiB (5%)
Title : MVO, НТВ
Language : Russian
Default : No
Forced : No
Audio #3
ID : 4
Format : AC-3
Format/Info : Audio Coding 3
Mode extension : CM (complete main)
Format settings, Endianness : Big
Codec ID : A_AC3
Duration : 1h 50mn
Bit rate mode : Constant
Bit rate : 192 Kbps
Channel(s) : 2 channels
Channel positions : Front: L R
Sampling rate : 48.0 KHz
Bit depth : 16 bits
Compression mode : Lossy
Stream size : 152 MiB (5%)
Title : DVO, ОРТ
Language : Russian
Default : No
Forced : No
Audio #4
ID : 5
Format : AC-3
Format/Info : Audio Coding 3
Mode extension : CM (complete main)
Format settings, Endianness : Big
Codec ID : A_AC3
Duration : 1h 50mn
Bit rate mode : Constant
Bit rate : 192 Kbps
Channel(s) : 2 channels
Channel positions : Front: L R
Sampling rate : 48.0 KHz
Bit depth : 16 bits
Compression mode : Lossy
Stream size : 152 MiB (5%)
Title : DVO, НТВ+
Language : Russian
Default : No
Forced : No
Audio #5
ID : 6
Format : AC-3
Format/Info : Audio Coding 3
Mode extension : CM (complete main)
Format settings, Endianness : Big
Codec ID : A_AC3
Duration : 1h 50mn
Bit rate mode : Constant
Bit rate : 192 Kbps
Channel(s) : 2 channels
Channel positions : Front: L R
Sampling rate : 48.0 KHz
Bit depth : 16 bits
Compression mode : Lossy
Stream size : 152 MiB (5%)
Title : AVO, А.Гаврилов
Language : Russian
Default : No
Forced : No
Audio #6
ID : 7
Format : AC-3
Format/Info : Audio Coding 3
Mode extension : CM (complete main)
Format settings, Endianness : Big
Codec ID : A_AC3
Duration : 1h 50mn
Bit rate mode : Constant
Bit rate : 192 Kbps
Channel(s) : 2 channels
Channel positions : Front: L R
Sampling rate : 48.0 KHz
Bit depth : 16 bits
Compression mode : Lossy
Stream size : 152 MiB (5%)
Title : АVO, М.Яроцкий
Language : Russian
Default : No
Forced : No
Audio #7
ID : 8
Format : AC-3
Format/Info : Audio Coding 3
Mode extension : CM (complete main)
Format settings, Endianness : Big
Codec ID : A_AC3
Duration : 1h 50mn
Bit rate mode : Constant
Bit rate : 192 Kbps
Channel(s) : 2 channels
Channel positions : Front: L R
Sampling rate : 48.0 KHz
Bit depth : 16 bits
Compression mode : Lossy
Stream size : 152 MiB (5%)
Title : Оригинал
Language : English
Default : No
Forced : No
Text #1
ID : 9
Format : UTF-8
Codec ID : S_TEXT/UTF8
Codec ID/Info : UTF-8 Plain Text
Title : SRT
Language : Russian
Default : No
Forced : No
Text #2
ID : 10
Format : UTF-8
Codec ID : S_TEXT/UTF8
Codec ID/Info : UTF-8 Plain Text
Title : SRT
Language : English
Default : No
Forced : No
Скриншоты:

Дополнительные скриншоты:

[Цитировать]



Показать сообщения:    

Текущее время: 17-Ноя 23:36

Часовой пояс: UTC + 6


Вы не можете начинать темы
Вы не можете отвечать на сообщения
Вы не можете редактировать свои сообщения
Вы не можете удалять свои сообщения
Вы не можете голосовать в опросах
Вы не можете прикреплять файлы к сообщениям
Вы не можете скачивать файлы

!ВНИМАНИЕ!
Сайт не предоставляет электронные версии произведений, а занимается лишь коллекционированием и каталогизацией ссылок, присылаемых и публикуемых на форуме нашими читателями. Если вы являетесь правообладателем какого-либо представленного материала и не желаете, чтобы ссылка на него находилась в нашем каталоге, свяжитесь с нами, и мы незамедлительно удалим ее. Файлы для обмена на трекере предоставлены пользователями сайта, и администрация не несет ответственности за их содержание. Просьба не заливать файлы, защищенные авторскими правами, а также файлы нелегального содержания!