[ Сегодня идет свободное скачивание без начисления Download ]


Статистика раздачи
Нет
 
   
 
Top  
 
 
Леонид Агутин-Жанр: Pop / Год выпуска диска: 1994 / Производитель диска: Россия / Аудио кодек: APE /
Тип рипа: image+.cue / Битрейт аудио: lossless-АГУТИН ЛЕОНИД (полное имя Агутин Леонид Николаевич) (р. 16 июля 1968, Москва), российский поп-певец и композитор. В 1986 окончил музыкальное училище и джазовую студию Москворечье (по классу фортепиано), в 1992 — Государственный университет культуры (факультет эстрады). Свои первые песни Леонид написал уже в 14 лет, создав для их исполнения группу «КРЕДО». В 1986 Агутина призвали в армию, он служил в эстрадно-симфоническом оркестре Ленинградского военного округа, где занимался аранжировками, играл на фортепиано и пел. Дебютировал на телевидении в программе «Звездный дождь» в 1991, где занял первое место. Переломным в судьбе Агутина стал 1992, когда, участвуя в конкурсе эстрадной песни «Ялта-92», молодой певец и композитор становится лауреатом. А в 1993 он закрепляет свой успех на международном конкурсе эстрадных исполнителей «Юрмала-93», где ему присуждают третье место и приз зрительских симпатий. Первый альбом Л. Агутина «Босоногий мальчик» вышел в 1994 и имел большой успех. Не менее успешным стал компакт-диск «Декамерон» (1995). Большую роль в росте популярности Леонида Агутина сыграло телевидение: он участвовал в шоу «Песня-94», «Песня-95». Запомнилась телезрителям роль Агутина в новогоднем (1996) музыкальном фильме «Старые песни о главном», где он исполнил песню шофера. Агутин — обладатель музыкальной премии «Овация-95» в номинации «Лучший певец года», автор песен для Ф. Киркорова, Л. Вайкуле, И. Броневицкой, М. Хлебниковой, Ф. Царикати, Л. Долиной. В 2000 Леонид Агутин заключил брак с певицей Анжеликой Варум, в том же году вышел их совместный альбом «Служебный роман». В числе композиций Агутина, получивших известность, песня «Граница», записанная в 2003 с группой «ОТПЕТЫЕ МОШЕННИКИ». Артист много гастролирует, как в России, так и по СНГ. Певец делает попытки расширить свою популярность за пределами русскоязычной публики. В 2004 им записан альбом на английском языке «Cosmopolitan Life».
-

1994г. Босоногий мальчик

01. Босоногий мальчик
02. За счастьем
03. Разговор о дожде
04. Девочка
05. Никому не сестра
06. Голос высокой травы
07. Следом за весной
08. Хоп Хэй Лала Лэй
09. Вспомни о нём
10. Парень чернокожий
11. Всё только для тебя
12. Кого не стоило бы ждать

Отчёт EAC

Exact Audio Copy V0.99 prebeta 4 from 23. January 2008
Отчёт EAC об извлечении, выполненном 23. декабря 2008, 22:44
Леонид Агутин / Босоногий мальчик
Дисковод: SONY DVD RW DW-G120A Adapter: 3 ID: 1
Режим чтения : Достоверность
Использование точного потока : Да
Отключение кэша аудио : Да
Использование указателей C2 : Нет
Коррекция смещения при чтении : 6
Способность читать области Lead-in и Lead-out : Нет
Заполнение пропущенных сэмплов тишиной : Да
Удаление блоков с тишиной в начале и конце : Нет
При вычислениях CRC использовались нулевые сэмплы : Да
Интерфейс : Установленный внешний ASPI-интерфейс
Выходной формат : Внутренние WAV-операции
Формат сэмплов : 44.100 Гц; 16 бит; стерео
TOC извлечённого CD
Трек | Старт | Длительность | Начальный сектор | Конечный сектор
---------------------------------------------------------------------
1 | 0:00.00 | 3:42.07 | 0 | 16656
2 | 3:42.07 | 3:34.10 | 16657 | 32716
3 | 7:16.17 | 4:08.70 | 32717 | 51386
4 | 11:25.12 | 3:37.70 | 51387 | 67731
5 | 15:03.07 | 5:15.73 | 67732 | 91429
6 | 20:19.05 | 3:50.45 | 91430 | 108724
7 | 24:09.50 | 3:32.55 | 108725 | 124679
8 | 27:42.30 | 3:42.70 | 124680 | 141399
9 | 31:25.25 | 3:54.55 | 141400 | 159004
10 | 35:20.05 | 3:41.02 | 159005 | 175581
11 | 39:01.07 | 3:47.65 | 175582 | 192671
12 | 42:48.72 | 3:52.03 | 192672 | 210074
Характеристики диапазона извлечения и сообщения об ошибках
Выбранный диапазон
Имя файла H:\Musik\Agutin\Босоногий мальчик\Леонид Агутин - Босоногий мальчик.wav
Пиковый уровень 79.6 %
Качество диапазона 100.0 %
CRC копии 8E634A1D
Копирование... OK
Ошибок не произошло
Конец отчёта

Tau Analyzer

1995г. Декамерон

1. Остров
2. На сиреневой луне
3. Пароход
4. Бум говола бум
5. Ты вернёшься когда-нибудь снова
6. Путник звёздных дорог
7. Всё куда-то девалось
8. Муха
9. Двери в небеса
10. Ole Ole

Отчёт EAC

Exact Audio Copy V0.99 prebeta 4 from 23. January 2008
Отчёт EAC об извлечении, выполненном 24. декабря 2008, 10:37
Леонид Агутин / Декамерон
Дисковод: SONY DVD RW DW-G120A Adapter: 3 ID: 1
Режим чтения : Достоверность
Использование точного потока : Да
Отключение кэша аудио : Да
Использование указателей C2 : Нет
Коррекция смещения при чтении : 6
Способность читать области Lead-in и Lead-out : Нет
Заполнение пропущенных сэмплов тишиной : Да
Удаление блоков с тишиной в начале и конце : Нет
При вычислениях CRC использовались нулевые сэмплы : Да
Интерфейс : Установленный внешний ASPI-интерфейс
Выходной формат : Внутренние WAV-операции
Формат сэмплов : 44.100 Гц; 16 бит; стерео
TOC извлечённого CD
Трек | Старт | Длительность | Начальный сектор | Конечный сектор
---------------------------------------------------------------------
1 | 0:00.00 | 3:55.50 | 0 | 17674
2 | 3:55.50 | 4:05.45 | 17675 | 36094
3 | 8:01.20 | 3:34.72 | 36095 | 52216
4 | 11:36.17 | 3:25.13 | 52217 | 67604
5 | 15:01.30 | 3:54.12 | 67605 | 85166
6 | 18:55.42 | 4:51.20 | 85167 | 107011
7 | 23:46.62 | 5:00.05 | 107012 | 129516
8 | 28:46.67 | 3:18.28 | 129517 | 144394
9 | 32:05.20 | 5:02.30 | 144395 | 167074
10 | 37:07.50 | 3:37.50 | 167075 | 183399
Характеристики диапазона извлечения и сообщения об ошибках
Выбранный диапазон
Имя файла H:\Musik\Agutin\Декамерон\Леонид Агутин - Декамерон.wav
Пиковый уровень 94.7 %
Качество диапазона 99.9 %
CRC копии 567907E4
Копирование... OK
Ошибок не произошло
Конец отчёта

Tau Analyzer

1998г. Летний дождь

01. Не унывай!
02. Летний дождь
03. Полночи
04. Танцевали пары
05. Мало, Мария
06. Без тебя
07. Королева(feat. Анжелика Варум)
08. Папа, мама
09. Февраль(feat. Анжелика Варум)
10. Белый камень

Отчёт EAC

Exact Audio Copy V0.99 prebeta 4 from 23. January 2008
Отчёт EAC об извлечении, выполненном 23. декабря 2008, 20:53
Леонид Агутин / Летний дождь
Дисковод: SONY DVD RW DW-G120A Adapter: 3 ID: 1
Режим чтения : Достоверность
Использование точного потока : Да
Отключение кэша аудио : Да
Использование указателей C2 : Нет
Коррекция смещения при чтении : 6
Способность читать области Lead-in и Lead-out : Нет
Заполнение пропущенных сэмплов тишиной : Да
Удаление блоков с тишиной в начале и конце : Нет
При вычислениях CRC использовались нулевые сэмплы : Да
Интерфейс : Установленный внешний ASPI-интерфейс
Выходной формат : Внутренние WAV-операции
Формат сэмплов : 44.100 Гц; 16 бит; стерео
TOC извлечённого CD
Трек | Старт | Длительность | Начальный сектор | Конечный сектор
---------------------------------------------------------------------
1 | 0:00.10 | 3:29.25 | 10 | 15709
2 | 3:29.35 | 4:13.65 | 15710 | 34749
3 | 7:43.25 | 4:08.52 | 34750 | 53401
4 | 11:52.02 | 4:25.58 | 53402 | 73334
5 | 16:17.60 | 3:17.35 | 73335 | 88144
6 | 19:35.20 | 4:20.65 | 88145 | 107709
7 | 23:56.10 | 3:29.22 | 107710 | 123406
8 | 27:25.32 | 3:19.68 | 123407 | 138399
9 | 30:45.25 | 4:17.32 | 138400 | 157706
10 | 35:02.57 | 5:46.00 | 157707 | 183656
Характеристики диапазона извлечения и сообщения об ошибках
Выбранный диапазон
Имя файла H:\Musik\Agutin\Летний дождь\Леонид Агутин - Летний дождь.wav
Пиковый уровень 98.8 %
Качество диапазона 100.0 %
CRC копии B5DB5D98
Копирование... OK
Ошибок не произошло
Конец отчёта

Tau Analyzer

2000г. Леонид Агутин

01. Луна
02. New York
03. Половина сердца
04. Little Jeane
05. Я не понимаю
06. Новый год
07. Трамвайчик
08. Не выходи из дома (музыка к к/ф "8 1/2 $")
09. На сиреневой луне
10. Папа - мама
11. Прощай(feat. Анжелика Варум)

Отчёт EAC

Exact Audio Copy V0.99 prebeta 4 from 23. January 2008
Отчёт EAC об извлечении, выполненном 23. декабря 2008, 21:35
Леонид Агутин / Леонид Агутин
Дисковод: SONY DVD RW DW-G120A Adapter: 3 ID: 1
Режим чтения : Достоверность
Использование точного потока : Да
Отключение кэша аудио : Да
Использование указателей C2 : Нет
Коррекция смещения при чтении : 6
Способность читать области Lead-in и Lead-out : Нет
Заполнение пропущенных сэмплов тишиной : Да
Удаление блоков с тишиной в начале и конце : Нет
При вычислениях CRC использовались нулевые сэмплы : Да
Интерфейс : Установленный внешний ASPI-интерфейс
Выходной формат : Внутренние WAV-операции
Формат сэмплов : 44.100 Гц; 16 бит; стерео
TOC извлечённого CD
Трек | Старт | Длительность | Начальный сектор | Конечный сектор
---------------------------------------------------------------------
1 | 0:00.00 | 3:42.11 | 0 | 16660
2 | 3:42.11 | 4:08.09 | 16661 | 35269
3 | 7:50.20 | 4:07.37 | 35270 | 53831
4 | 11:57.57 | 6:03.06 | 53832 | 81062
5 | 18:00.63 | 3:10.56 | 81063 | 95368
6 | 21:11.44 | 4:07.47 | 95369 | 113940
7 | 25:19.16 | 4:20.35 | 113941 | 133475
8 | 29:39.51 | 3:29.38 | 133476 | 149188
9 | 33:09.14 | 6:40.17 | 149189 | 179205
10 | 39:49.31 | 3:16.10 | 179206 | 193915
11 | 43:05.41 | 4:25.48 | 193916 | 213838
12 | 50:03.14 | 13:22.11 | 225239 | 285399
Характеристики диапазона извлечения и сообщения об ошибках
Выбранный диапазон
Имя файла H:\Musik\Agutin\Леонид Агутин\Леонид Агутин - Леонид Агутин.wav
Пиковый уровень 100.0 %
Качество диапазона 100.0 %
CRC копии 06F30027
Копирование... OK
Ошибок не произошло
Конец отчёта

Tau Analyzer

Видео: Луна

Качество:VCD
Формат:4:3
Видео кодек:Mpeg-1
Аудио кодек:Mpeg-1 audio Layer 2
Видео:30 MB, 1151 Kbps, 25.0 fps, разрешение 352*288
Аудио:5.92 MB, 224 Kbps, 44100 Hz, 2 каналов

Видео: Не выходи из дома

Качество:VCD
Формат:4:3
Видео кодек:Mpeg-1
Аудио кодек:Mpeg-1 audio Layer 2
Видео:30 MB, 1151 Kbps, 25.0 fps, разрешение 352*288
Аудио:5.90 MB, 224 Kbps, 44100 Hz, 2 каналов

Видео: Половина сердца

Качество:VCD
Формат:4:3
Видео кодек:Mpeg-1
Аудио кодек:Mpeg-1 audio Layer 2
Видео:33 MB, 1151 Kbps, 25.0 fps, разрешение 352*288
Аудио:6.56 MB, 224 Kbps, 44100 Hz, 2 каналов

2003г. Дежа Вю

01.Граница. (feat. Отпетые мошенники)
02.Налило.
03.На семи холмах.
04.Последний день в году.
05.Это будет так легко.
06.Я буду всегда с тобой. (feat. Анжелика Варум)
07.Тот, кто ее называет холодной зимой.
08.Мамбо футболистов.
09.Синей реки вода.
10.Дождь надоел.
11.Каких-то тысяча лет. (feat. Сосо Павлиашвили)
12.Если ты когда-нибудь меня простишь. (feat. Анжелика Варум)

Отчёт EAC

Exact Audio Copy V0.99 prebeta 4 from 23. January 2008
Отчёт EAC об извлечении, выполненном 24. декабря 2008, 9:56
Леонид Агутин / Дежа Вю
Дисковод: SONY DVD RW DW-G120A Adapter: 3 ID: 1
Режим чтения : Достоверность
Использование точного потока : Да
Отключение кэша аудио : Да
Использование указателей C2 : Нет
Коррекция смещения при чтении : 6
Способность читать области Lead-in и Lead-out : Нет
Заполнение пропущенных сэмплов тишиной : Да
Удаление блоков с тишиной в начале и конце : Нет
При вычислениях CRC использовались нулевые сэмплы : Да
Интерфейс : Установленный внешний ASPI-интерфейс
Выходной формат : Внутренние WAV-операции
Формат сэмплов : 44.100 Гц; 16 бит; стерео
TOC извлечённого CD
Трек | Старт | Длительность | Начальный сектор | Конечный сектор
---------------------------------------------------------------------
1 | 0:00.00 | 4:05.15 | 0 | 18389
2 | 4:05.15 | 4:23.37 | 18390 | 38151
3 | 8:28.52 | 4:13.30 | 38152 | 57156
4 | 12:42.07 | 4:51.43 | 57157 | 79024
5 | 17:33.50 | 3:49.71 | 79025 | 96270
6 | 21:23.46 | 4:15.13 | 96271 | 115408
7 | 25:38.59 | 4:09.46 | 115409 | 134129
8 | 29:48.30 | 3:27.36 | 134130 | 149690
9 | 33:15.66 | 4:44.29 | 149691 | 171019
10 | 38:00.20 | 4:04.25 | 171020 | 189344
11 | 42:04.45 | 5:15.31 | 189345 | 213000
12 | 47:20.01 | 4:05.39 | 213001 | 231414
13 | 53:57.40 | 5:04.36 | 242815 | 265650
Характеристики диапазона извлечения и сообщения об ошибках
Выбранный диапазон
Имя файла H:\Musik\Agutin\Дежа Вю\Леонид Агутин - Дежа Вю.wav
Пиковый уровень 99.3 %
Качество диапазона 99.9 %
CRC копии 6632A6B8
Копирование... OK
Ошибок не произошло
Конец отчёта

Tau Analyzer

Видео: Граница

Качество:VCD
Формат:4:3
Видео кодек:Mpeg-1
Аудио кодек:Mpeg-1 audio Layer 2
Видео:35 MB, 1123 Kbps, 25.0 fps, разрешение 352*288
Аудио:7.07 MB, 224 Kbps, 44100 Hz, 2 канала

2007г. Любовь. Дорога. Грусть и Радость.

1. Игрушки
2. Не уходи далеко
3. Белиберда
4. Две дороги, два пути (дуэт с А. Варум)
5. Прочитай между строк
6. Женщинам
7. Платье невесты
8. Колыбельная
9. Памяти Карузо (версия)
10. Зимняя вишня (новая версия)
11. По дороге на Юг
12. Аэропорты (дуэт с В. Пресняковым)

Отчёт EAC

Exact Audio Copy V0.99 prebeta 4 from 23. January 2008
Отчёт EAC об извлечении, выполненном 24. декабря 2008, 13:34
Леонид Агутин / Любовь. Дорога. Грусть и Радость
Дисковод: SONY DVD RW DW-G120A Adapter: 3 ID: 1
Режим чтения : Достоверность
Использование точного потока : Да
Отключение кэша аудио : Да
Использование указателей C2 : Нет
Коррекция смещения при чтении : 6
Способность читать области Lead-in и Lead-out : Нет
Заполнение пропущенных сэмплов тишиной : Да
Удаление блоков с тишиной в начале и конце : Нет
При вычислениях CRC использовались нулевые сэмплы : Да
Интерфейс : Установленный внешний ASPI-интерфейс
Выходной формат : Внутренние WAV-операции
Формат сэмплов : 44.100 Гц; 16 бит; стерео
TOC извлечённого CD
Трек | Старт | Длительность | Начальный сектор | Конечный сектор
---------------------------------------------------------------------
1 | 0:00.00 | 5:07.72 | 0 | 23096
2 | 5:07.72 | 4:23.20 | 23097 | 42841
3 | 9:31.17 | 3:32.08 | 42842 | 58749
4 | 13:03.25 | 4:01.42 | 58750 | 76866
5 | 17:04.67 | 3:17.54 | 76867 | 91695
6 | 20:22.46 | 3:26.61 | 91696 | 107206
7 | 23:49.32 | 4:30.33 | 107207 | 127489
8 | 28:19.65 | 3:24.45 | 127490 | 142834
9 | 31:44.35 | 3:58.60 | 142835 | 160744
10 | 35:43.20 | 4:19.54 | 160745 | 180223
11 | 40:02.74 | 3:23.72 | 180224 | 195520
12 | 43:26.71 | 4:43.13 | 195521 | 216758
Характеристики диапазона извлечения и сообщения об ошибках
Выбранный диапазон
Имя файла H:\Musik\Agutin\Любовь. Дорога. Грусть и Радость\Леонид Агутин - Любовь. Дорога. Грусть и Радость.wav
Пиковый уровень 96.6 %
Качество диапазона 99.9 %
CRC копии 13424847
Копирование... OK
Ошибок не произошло
Конец отчёта
Совместные альбомы

2000г. Леонид Агутин и Анжелика Варум - Служебный роман

01. Привокзальное кафе
02. Дождик
03. Все в твоих руках
04. Не жди меня
05. Почему
06. В городе снов
07. Просто танец
08. Маэстро
09. Февраль
10. Прощай

Отчёт EAC

Exact Audio Copy V0.99 prebeta 4 from 23. January 2008
Отчёт EAC об извлечении, выполненном 24. декабря 2008, 11:47
Л.Агутин, А.Варум / Служебный роман
Дисковод: SONY DVD RW DW-G120A Adapter: 3 ID: 1
Режим чтения : Достоверность
Использование точного потока : Да
Отключение кэша аудио : Да
Использование указателей C2 : Нет
Коррекция смещения при чтении : 6
Способность читать области Lead-in и Lead-out : Нет
Заполнение пропущенных сэмплов тишиной : Да
Удаление блоков с тишиной в начале и конце : Нет
При вычислениях CRC использовались нулевые сэмплы : Да
Интерфейс : Установленный внешний ASPI-интерфейс
Выходной формат : Внутренние WAV-операции
Формат сэмплов : 44.100 Гц; 16 бит; стерео
TOC извлечённого CD
Трек | Старт | Длительность | Начальный сектор | Конечный сектор
---------------------------------------------------------------------
1 | 0:00.00 | 3:41.58 | 0 | 16632
2 | 3:41.58 | 3:47.12 | 16633 | 33669
3 | 7:28.70 | 4:53.41 | 33670 | 55685
4 | 12:22.36 | 4:51.20 | 55686 | 77530
5 | 17:13.56 | 3:26.60 | 77531 | 93040
6 | 20:40.41 | 3:55.49 | 93041 | 110714
7 | 24:36.15 | 4:58.07 | 110715 | 133071
8 | 29:34.22 | 4:14.20 | 133072 | 152141
9 | 33:48.42 | 5:30.64 | 152142 | 176955
10 | 39:19.31 | 4:25.13 | 176956 | 196843
11 | 46:16.44 | 3:02.70 | 208244 | 221963
Характеристики диапазона извлечения и сообщения об ошибках
Выбранный диапазон
Имя файла H:\Musik\Agutin\Служебный Роман\Л.Агутин, А.Варум - Служебный роман.wav
Пиковый уровень 100.0 %
Качество диапазона 100.0 %
CRC копии 4F7E0FAF
Копирование... OK
Ошибок не произошло
Конец отчёта

Tau Analyzer

Видео: Все в твоих руках

Качество:VCD
Формат:4:3
Видео кодек:Mpeg-1
Аудио кодек:Mpeg-1 audio Layer 2
Видео : 21 MB, 800 Kbps, 25.0 fps, разрешение 400*304
Аудио : 3.50 MB, 128 Kbps, 44100 Hz, 2 каналa

2005г. Al Di Meola & Леонид Агутин - Cosmopolitan Life

01. Cuba Africa
02. Cosmopolitan Life
03. Nobody
04. Price to Learn
05. Tango
06. Smile
07. Portofino
08. If I'll Get a Chance...
09. Blue River
10. Shade of Your World

Отчёт EAC

Exact Audio Copy V0.99 prebeta 4 from 23. January 2008
Отчёт EAC об извлечении, выполненном 24. декабря 2008, 14:51
Leonid Agutin & Al Di Meola / Cosmopolitan Life
Дисковод: SONY DVD RW DW-G120A Adapter: 3 ID: 1
Режим чтения : Достоверность
Использование точного потока : Да
Отключение кэша аудио : Да
Использование указателей C2 : Нет
Коррекция смещения при чтении : 6
Способность читать области Lead-in и Lead-out : Нет
Заполнение пропущенных сэмплов тишиной : Да
Удаление блоков с тишиной в начале и конце : Нет
При вычислениях CRC использовались нулевые сэмплы : Да
Интерфейс : Установленный внешний ASPI-интерфейс
Выходной формат : Внутренние WAV-операции
Формат сэмплов : 44.100 Гц; 16 бит; стерео
TOC извлечённого CD
Трек | Старт | Длительность | Начальный сектор | Конечный сектор
---------------------------------------------------------------------
1 | 0:00.00 | 5:36.47 | 0 | 25246
2 | 5:36.47 | 4:11.33 | 25247 | 44104
3 | 9:48.05 | 4:49.20 | 44105 | 65799
4 | 14:37.25 | 5:29.70 | 65800 | 90544
5 | 20:07.20 | 3:56.50 | 90545 | 108294
6 | 24:03.70 | 4:21.67 | 108295 | 127936
7 | 28:25.62 | 3:39.00 | 127937 | 144361
8 | 32:04.62 | 4:09.40 | 144362 | 163076
9 | 36:14.27 | 4:46.20 | 163077 | 184546
10 | 41:00.47 | 6:16.40 | 184547 | 212786
Характеристики диапазона извлечения и сообщения об ошибках
Выбранный диапазон
Имя файла H:\Musik\Agutin\Cosmopolitan Life\Leonid Agutin & Al Di Meola - Cosmopolitan Life.wav
Пиковый уровень 99.9 %
Качество диапазона 99.9 %
CRC копии B5C298E7
Копирование... OK
Ошибок не произошло
Конец отчёта

Tau Analyzer

[Цитировать]



Показать сообщения:    

Текущее время: 25-Июл 14:58

Часовой пояс: UTC + 6


Вы не можете начинать темы
Вы не можете отвечать на сообщения
Вы не можете редактировать свои сообщения
Вы не можете удалять свои сообщения
Вы не можете голосовать в опросах
Вы не можете прикреплять файлы к сообщениям
Вы не можете скачивать файлы

!ВНИМАНИЕ!
Сайт не предоставляет электронные версии произведений, а занимается лишь коллекционированием и каталогизацией ссылок, присылаемых и публикуемых на форуме нашими читателями. Если вы являетесь правообладателем какого-либо представленного материала и не желаете, чтобы ссылка на него находилась в нашем каталоге, свяжитесь с нами, и мы незамедлительно удалим ее. Файлы для обмена на трекере предоставлены пользователями сайта, и администрация не несет ответственности за их содержание. Просьба не заливать файлы, защищенные авторскими правами, а также файлы нелегального содержания!