[ Сегодня идет свободное скачивание без начисления Download ]


Статистика раздачи
Скачал: [ 8 ]
 
   
 
 
 
 
Идеаль / L'idéal
«А страшные пусть сдохнут»
Год выпуска: 2016
Страна: Франция
Производство: Légende Films, Le 12e Art, Le Tax Shelter du Gouvernement Fédéral de Belgique, Nexus Factory, Orange Cinéma Séries, Orange Studio, uFund, uMedia Family
Жанр: Комедия
Режиссёр: Фредерик Бегбедер
В ролях: Гаспар Пруст, Одри Флеро, Анамария Вартоломей, Джонатан Ламбер, Камилль Роу, Саболч Альб, Ксавье Алькан, Клеман Андре, Том Ауденарт, Николет Барабас
Перевод: Профессиональный (полное дублирование) [iTunes]
Субтитры: Нет
Описание: «Американки слишком здоровые, француженки слишком капризные, немки слишком спортивные, японки слишком покорные, итальянки слишком ревнивые, англичанки слишком пьющие, голландки слишком раскрепощенные, испанки слишком томные! Остаются русские, обладающие особой красотой и необъяснимой властью над людьми». — в этом был убежден Октав, скаут крупнейшей косметической компании «Идеаль», отправляясь в Россию.
Жизнь гламурного вербовщика нервная и вредная для здоровья: попробуй-ка прочесать все московские ночные клубы, попить водки с каждым встречным олигархом, поколесить по необъятным заснеженным просторам да еще пересмотреть тысячи нереальных красавиц. Так и с ума сойти недолго. Но долгое время худо-бедно Октав справлялся со своими обязанностями. Пока однажды парижское начальство, забившееся в истерике из-за опозоривших «Идеаль» смелых эротических эскапад главной звезды, не сказало ему: умри или найди (за неделю!) не рядовую модель, а сокровище, новое — идеальное — лицо

Качество: WEB-DLRip | Сэмпл
Продолжительность: 01:31:20
Формат: AVI
Видео кодек: XviD
Аудио кодек: AC3
Видео: 720х304 (2.35:1), 24.000 fps, XviD ~ 1749 kbps avg, 0.333 bit/pixel
Аудио: AC3, 48 kHz, 6 ch, ~ 384.00 kbps avg
Дата премьеры (мир): 15 июня 2016
Дата премьеры (РФ): 27 апреля 2017

MInfo

General
Complete name : IdeaLL.2O16.D.WEB-DLRip.14OOMB.avi
Format : AVI
Format/Info : Audio Video Interleave
File size : 1.37 GiB
Duration : 1 h 31 min
Overall bit rate : 2 142 kb/s
Writing application : VirtualDubMod 1.5.10.2 (build 2540/release)
Writing library : VirtualDubMod build 2540/release
Video
ID : 0
Format : MPEG-4 Visual
Format profile : Advanced Simple@L5
Format settings, BVOP : 2
Format settings, QPel : No
Format settings, GMC : No warppoints
Format settings, Matrix : Default (MPEG)
Codec ID : XVID
Codec ID/Hint : XviD
Duration : 1 h 31 min
Bit rate : 1 749 kb/s
Width : 720 pixels
Height : 304 pixels
Display aspect ratio : 2.35:1
Frame rate : 24.000 FPS
Color space : YUV
Chroma subsampling : 4:2:0
Bit depth : 8 bits
Scan type : Progressive
Compression mode : Lossy
Bits/(Pixel*Frame) : 0.333
Stream size : 1.12 GiB (82%)
Writing library : XviD 1.2.1 (UTC 2008-12-04)
Audio
ID : 1
Format : AC-3
Format/Info : Audio Coding 3
Format settings, Endianness : Big
Codec ID : 2000
Duration : 1 h 31 min
Bit rate mode : Constant
Bit rate : 384 kb/s
Channel(s) : 6 channels
Channel positions : Front: L C R, Side: L R, LFE
Sampling rate : 48.0 kHz
Frame rate : 31.250 FPS (1536 spf)
Bit depth : 16 bits
Compression mode : Lossy
Stream size : 251 MiB (18%)
Alignment : Split accross interleaves
Interleave, duration : 42 ms (1.00 video frame)
Interleave, preload duration : 500 ms
Service kind : Complete Main

Скриншоты


[Цитировать]



Показать сообщения:    

Текущее время: 21-Ноя 04:47

Часовой пояс: UTC + 6


Вы не можете начинать темы
Вы не можете отвечать на сообщения
Вы не можете редактировать свои сообщения
Вы не можете удалять свои сообщения
Вы не можете голосовать в опросах
Вы не можете прикреплять файлы к сообщениям
Вы не можете скачивать файлы

!ВНИМАНИЕ!
Сайт не предоставляет электронные версии произведений, а занимается лишь коллекционированием и каталогизацией ссылок, присылаемых и публикуемых на форуме нашими читателями. Если вы являетесь правообладателем какого-либо представленного материала и не желаете, чтобы ссылка на него находилась в нашем каталоге, свяжитесь с нами, и мы незамедлительно удалим ее. Файлы для обмена на трекере предоставлены пользователями сайта, и администрация не несет ответственности за их содержание. Просьба не заливать файлы, защищенные авторскими правами, а также файлы нелегального содержания!